<?xml version="1.0" encoding="UTF-8" standalone="no"?>
<!-- Creator: CorelDRAW X7 -->

<svg
   xml:space="preserve"
   width="1260px"
   height="411px"
   version="1.1"
   style="shape-rendering:geometricPrecision; text-rendering:geometricPrecision; image-rendering:optimizeQuality; fill-rule:evenodd; clip-rule:evenodd"
   viewBox="0 0 1260 411"
   id="svg488"
   sodipodi:docname="slider_tsubadome_japan_en.svg"
   inkscape:version="1.2 (dc2aedaf03, 2022-05-15)"
   xmlns:inkscape="http://www.inkscape.org/namespaces/inkscape"
   xmlns:sodipodi="http://sodipodi.sourceforge.net/DTD/sodipodi-0.dtd"
   xmlns:xlink="http://www.w3.org/1999/xlink"
   xmlns="http://www.w3.org/2000/svg"
   xmlns:svg="http://www.w3.org/2000/svg"><sodipodi:namedview
   id="namedview490"
   pagecolor="#ffffff"
   bordercolor="#000000"
   borderopacity="0.25"
   inkscape:showpageshadow="2"
   inkscape:pageopacity="0.0"
   inkscape:pagecheckerboard="0"
   inkscape:deskcolor="#d1d1d1"
   showgrid="false"
   inkscape:zoom="1.547619"
   inkscape:cx="499.15385"
   inkscape:cy="205.47692"
   inkscape:window-width="3840"
   inkscape:window-height="2054"
   inkscape:window-x="-11"
   inkscape:window-y="-11"
   inkscape:window-maximized="1"
   inkscape:current-layer="Ebene_x0020_1" />
 <defs
   id="defs462">
  <font
   id="FontID0"
   horiz-adv-x="739"
   font-variant="normal"
   style="fill-rule:nonzero"
   font-style="normal"
   font-weight="400,700">
	<font-face
   font-family="Century Gothic"
   id="font-face365">
	</font-face>
   <missing-glyph
   id="missing-glyph369"><path
     d="M0 0z"
     id="path367" /></missing-glyph>
   <glyph
   unicode="f"
   horiz-adv-x="313"
   id="glyph373"><path
     d="M295.999 735.333l0 -66.5004c-25.1641,10.8328 -46.8297,16.1649 -64.8355,16.1649 -13.4952,0 -24.6654,-2.66236 -33.4959,-7.99443 -8.83787,-5.3394 -14.5,-11.5002 -16.6709,-18.5045 -2.33232,-6.99696 -3.49848,-25.6628 -3.49848,-55.829l0 -71.6711 111.504 0 0 -58.9974 -111.665 0 -0.337379 -472.001 -67.9966 0 0 472.001 -70.0062 0 0 58.9974 70.0062 0 0 82.6653c0,37.9992 3.49848,65.1729 10.4954,81.3378 7.00429,16.1649 19.0033,29.33 35.8356,39.1654 16.6636,9.83534 37.0017,14.83 60.831,14.83 22.1717,0 48.832,-4.49595 79.8342,-13.6639z"
     id="path371" /></glyph>
   <glyph
   unicode="t"
   horiz-adv-x="299"
   id="glyph377"><path
     d="M82.9997 727.003l133 0 0 -196.005 79.0036 0 0 -114.997 -79.0036 0 0 -416.001 -133 0 0 416.001 -67.9969 0 0 114.997 67.9969 0 0 196.005z"
     id="path375" /></glyph>
   <glyph
   unicode="c"
   horiz-adv-x="640"
   id="glyph381"><path
     d="M586.999 422.998l-110.835 -61.0001c-20.8312,21.8337 -41.3305,36.8365 -61.6639,45.3336 -20.3334,8.50393 -44.1651,12.666 -71.5022,12.666 -49.8344,0 -90.1624,-14.83 -120.832,-44.3311 -30.8354,-29.667 -46.1701,-67.4991 -46.1701,-113.835 0,-44.9948 14.8369,-81.6654 44.338,-110.164 29.667,-28.4985 68.5016,-42.6648 116.663,-42.6648 59.4999,0 105.836,20.3334 139.167,61.0001l104.833 -71.9999c-56.9971,-74.0049 -137.328,-111 -241.166,-111 -93.5018,0 -166.663,27.662 -219.498,82.8338 -52.835,55.1649 -79.3354,119.663 -79.3354,193.661 0,51.3347 12.8319,98.5004 38.5028,141.67 25.8298,43.1626 61.6639,77.1645 107.834,101.833 45.9973,24.6683 97.4979,37.0025 154.495,37.0025 52.835,0 100.167,-10.502 142.168,-31.506 42.0011,-20.9971 76.3349,-50.83 103.001,-89.4987z"
     id="path379" /></glyph>
   <glyph
   unicode="0"
   horiz-adv-x="560"
   id="glyph385"><path
     d="M277.837 735.998c52.3303,0 97.4979,-12.8319 135.33,-38.4958 37.9981,-25.8367 67.1672,-65.0032 87.8325,-117.838 20.6652,-52.994 31.0013,-126.494 31.0013,-220.833 0,-95.3339 -10.502,-169.498 -31.4991,-222.665 -21.004,-53.0009 -49.1707,-92.0015 -84.666,-116.836 -35.3363,-24.8342 -80.172,-37.3343 -134.169,-37.3343 -54.0034,0 -99.3301,12.5001 -136.001,37.5003 -36.8296,25.173 -65.6669,63.1711 -86.4981,114.34 -20.8381,50.9959 -31.1673,123.667 -31.1673,218.164 0,131.666 20.3334,227.166 61.0001,286.334 45.1676,65.1691 108.166,97.6638 188.836,97.6638zm4.16209 -130c-22.9952,0 -43.3286,-7.32859 -61.1661,-22.1655 -17.8306,-14.6641 -31.3332,-40.169 -40.8327,-76.1689 -9.33358,-36 -14.0004,-88.6621 -14.0004,-158.166 0,-90.4943 10.8339,-153.168 32.3357,-187.667 21.4949,-34.4997 49.3297,-51.8325 83.6635,-51.8325 32.9994,0 59.168,16.3372 78.4989,49.1707 23.6658,39.6643 35.5022,105.829 35.5022,198.667 0,93.9995 -10.6679,158.996 -31.831,194.664 -21.1699,35.6681 -48.5001,53.4987 -82.1701,53.4987z"
     id="path383" /></glyph>
   <glyph
   unicode="n"
   horiz-adv-x="600"
   id="glyph389"><path
     d="M67.0013 530.998l133 0 0 -54.6671c30.1648,25.3389 57.6677,42.8377 82.1632,52.835 24.5024,9.83137 49.6685,14.8369 75.3324,14.8369 52.6691,0 97.5048,-18.3353 134.169,-55.0059 30.8354,-31.3332 46.3361,-77.4964 46.3361,-138.497l0 -350.5 -132.005 0 0 232.164c0,63.337 -2.82773,105.338 -8.49702,126.003 -5.66929,20.8312 -15.6666,36.6637 -29.667,47.4976 -14.1663,10.8339 -31.665,16.3372 -52.3303,16.3372 -27.0052,0 -50.1663,-9.00172 -69.5041,-27.0052 -19.3309,-17.9965 -32.6675,-42.9967 -40.1621,-74.6617 -3.83714,-16.6691 -5.83522,-52.5031 -5.83522,-107.668l0 -212.667 -133 0 0 530.998z"
     id="path387" /></glyph>
   <glyph
   unicode="e"
   horiz-adv-x="649"
   id="glyph393"><path
     d="M524.332 176.002l57.6699 -30.3348c-19.0033,-36.833 -40.8376,-66.6691 -65.6716,-89.3322 -24.8267,-22.5017 -52.6605,-39.8328 -83.6628,-51.6704 -31.1636,-11.8303 -66.1704,-17.6611 -105.336,-17.6611 -86.9999,0 -154.828,28.3325 -203.829,84.9976 -49.0007,56.6651 -73.5047,120.664 -73.5047,191.998 0,67.1678 20.8368,127.17 62.3345,179.669 52.4992,66.8305 123.004,100.334 211.17,100.334 90.8284,0 163.497,-34.332 217.661,-102.835 38.5053,-48.3333 58.1686,-108.666 58.836,-181.165l-480.003 0c1.33485,-61.5057 21.1669,-111.834 59.3348,-150.999 38.3366,-39.334 85.665,-59.0047 141.831,-59.0047 27.1737,0 53.6727,4.67197 79.3355,14.0012 25.6702,9.33661 47.5045,21.6656 65.503,37.1704 17.9985,15.4975 37.5005,40.3315 58.33,74.8322zm0.667425 142.998c-9.16792,36.503 -22.5017,65.503 -40.0015,87.3373 -17.6611,21.827 -40.8302,39.3267 -69.6615,52.6605 -28.8386,13.3338 -59.1661,20.0007 -90.8357,20.0007 -52.4992,0 -97.5027,-16.6636 -135.164,-50.1669 -27.6724,-24.4967 -48.3333,-60.9997 -62.5032,-109.832l398.166 0z"
     id="path391" /></glyph>
   <glyph
   unicode="T"
   horiz-adv-x="425"
   id="glyph397"><path
     d="M16.0035 648.003l0 69.9989 392.996 0 0 -69.9989 -159.999 0 0 -648.003 -72.9986 0 0 648.003 -159.999 0z"
     id="path395" /></glyph>
   <glyph
   unicode="b"
   horiz-adv-x="682"
   id="glyph401"><path
     d="M81.0004 0l0 736.001 67.9966 0 0 -297.004c28.6699,35.1681 60.6696,61.5057 96.1678,78.8368 35.4982,17.4997 74.3335,26.1689 116.499,26.1689 75.1696,0 139.338,-27.1664 192.504,-81.4991 53.1666,-54.5014 79.8342,-120.334 79.8342,-198.005 0,-76.4971 -26.8363,-142 -80.5017,-196.164 -53.6653,-54.1641 -118.163,-81.3304 -193.67,-81.3304 -43.3313,0 -82.4966,9.16059 -117.665,27.4964 -35.1681,18.3358 -66.163,46.001 -93.1681,83.164l0 -97.664 -67.9966 0zm273.835 52.9979c37.8305,0 72.9986,9.33661 104.998,27.8338 32.1684,18.6659 57.6699,44.8348 76.6658,78.4994 19.0033,33.5032 28.5012,69.1701 28.5012,106.671 0,37.5005 -9.49796,73.3287 -28.6699,107.331 -19.1646,33.8333 -44.8275,60.3322 -77.1645,79.3355 -32.3298,18.8346 -66.8305,28.3325 -103.502,28.3325 -37.1631,0 -72.6613,-9.49796 -106.333,-28.3325 -33.4959,-19.0033 -59.3274,-44.5047 -77.3332,-76.5045 -17.9985,-31.9997 -26.9977,-67.9966 -26.9977,-108.167 0,-61.161 20.1694,-112.333 60.6696,-153.332 40.3315,-41.1676 89.9996,-61.6671 149.166,-61.6671z"
     id="path399" /></glyph>
   <glyph
   unicode="s"
   horiz-adv-x="439"
   id="glyph405"><path
     d="M391.997 455.831l-82.3291 -82.8338c-33.3313,33.3382 -63.6689,50.0003 -90.999,50.0003 -14.8369,0 -26.5005,-3.1665 -35.0044,-9.49951 -8.49702,-6.33301 -12.666,-14.1663 -12.666,-23.4999 0,-7.16266 2.66871,-13.6685 7.99923,-19.6627 5.33743,-6.00115 18.6672,-14.1663 39.8371,-24.6683l48.666 -24.3365c51.3347,-25.1661 86.664,-50.9959 105.836,-77.1645 19.165,-26.3345 28.6645,-56.9971 28.6645,-92.3333 0,-46.9998 -17.3328,-86.3322 -51.9984,-117.665 -34.6725,-31.4991 -81.1676,-47.1657 -139.499,-47.1657 -77.3374,0 -139.34,30.1648 -185.503,90.6671l82.1632 89.3328c15.6666,-18.1694 34.0019,-32.9994 55.1718,-44.172 20.9971,-11.1657 39.6643,-16.8281 56.0015,-16.8281 17.4987,0 31.831,4.16209 42.4989,12.666 10.8339,8.49702 16.1644,18.1625 16.1644,29.1623 0,20.5062 -19.3309,40.5008 -58.1655,59.8386l-44.8358 22.4974c-86.0003,43.1695 -128.997,97.166 -128.997,162.003 0,41.8283 16.1644,77.6623 48.5001,107.329 32.3288,29.667 73.6662,44.5039 123.998,44.5039 34.4997,0 66.8354,-7.66736 97.332,-22.8362 30.3376,-15.1688 56.0015,-37.0025 77.1645,-65.3351z"
     id="path403" /></glyph>
   <glyph
   unicode="p"
   horiz-adv-x="682"
   id="glyph409"><path
     d="M77.0032 530.999l67.9966 0 0 -97.664c26.9977,37.1631 57.9999,64.8355 93.1681,83.164 35.1681,18.3358 74.3335,27.5038 117.665,27.5038 75.4997,0 139.998,-27.1664 193.67,-81.3378 53.6653,-54.1641 80.4943,-119.498 80.4943,-195.665 0,-78.0007 -26.6676,-144.002 -79.8342,-198.496 -53.1666,-54.3328 -117.327,-81.4991 -192.497,-81.4991 -42.1651,0 -81.0004,8.83054 -116.499,26.3303 -35.4982,17.6684 -67.4979,43.83 -96.1678,78.6681l0 -286.002 -67.9966 0 0 724.999zm273.827 -52.9979c-59.1661,0 -108.834,-20.4995 -149.166,-61.6671 -40.5002,-41.1676 -60.6623,-92.332 -60.6623,-153.5 0,-40.1702 8.99923,-76.3358 26.9977,-108.335 17.9985,-32.1611 43.83,-57.5012 77.3332,-76.3284 33.6646,-18.8346 69.1701,-28.1712 106.333,-28.1712 36.6643,0 71.1651,9.5053 103.502,28.5012 32.3298,18.8346 57.9999,45.3335 77.1645,79.3355 19.1646,34.002 28.6699,69.6615 28.6699,106.832 0,37.6691 -9.5053,73.336 -28.5012,107.001 -19.0033,33.6646 -44.5047,59.8335 -76.6658,78.3307 -31.9997,18.6659 -67.1678,28.0025 -105.006,28.0025z"
     id="path407" /></glyph>
   <glyph
   unicode="m"
   horiz-adv-x="938"
   id="glyph413"><path
     d="M75.9984 530.999l68.004 0 0 -91.8332c23.8293,33.8333 48.1646,58.6674 73.3287,74.3335 34.5007,20.3381 70.835,30.5035 108.834,30.5035 25.8315,0 50.1669,-5.00202 73.336,-15.1674 23.1618,-10.004 41.9964,-23.4992 56.6651,-40.1702 14.6687,-16.8323 27.3351,-40.8302 38.1679,-72.1625 22.6631,41.6664 51.1643,73.3287 85.1663,94.9943 34.1633,21.673 70.835,32.5058 110.169,32.5058 36.6643,0 69.1628,-9.33661 97.1653,-27.8338 28.1638,-18.5045 49.0007,-44.3361 62.6646,-77.5019 13.6639,-33.1659 20.4995,-82.834 20.4995,-149.166l0 -289.501 -69.9989 0 0 289.67c0,56.9951 -3.99721,95.9991 -12.1677,117.327 -8.16312,21.3356 -21.9957,38.5053 -41.6664,51.5017 -19.6634,13.0038 -43.0012,19.502 -70.3363,19.502 -32.9972,0 -63.332,-9.83534 -90.6597,-29.3373 -27.5038,-19.4947 -47.5045,-45.4949 -60.1709,-77.9933 -12.6664,-32.5058 -18.9959,-86.8385 -18.9959,-162.837l0 -207.833 -68.004 0 0 271.664c0,63.9994 -3.99721,107.499 -11.999,130.5 -8.00176,23.0005 -21.8343,41.3363 -41.6664,55.1689 -20.0007,13.8326 -43.4999,20.6682 -70.835,20.6682 -31.6623,0 -61.1684,-9.49796 -88.6648,-28.5012 -27.5038,-18.9959 -47.8345,-44.6661 -60.9997,-76.8345 -13.1651,-32.1684 -19.832,-81.4991 -19.832,-147.831l0 -224.834 -68.004 0 0 530.999z"
     id="path411" /></glyph>
   <glyph
   unicode="u"
   horiz-adv-x="600"
   id="glyph417"><path
     d="M67.0013 530.998l134.998 0 0 -255.332c0,-49.6685 3.49836,-84.1682 10.3361,-103.499 6.8308,-19.3309 17.8306,-34.3338 32.9994,-45.1676 15.1619,-10.6679 33.995,-15.9985 56.1674,-15.9985 22.1655,0 41.1646,5.33051 56.6652,15.8325 15.5007,10.502 26.9983,26.0027 34.4997,46.502 5.49644,15.3347 8.33109,47.9954 8.33109,97.9957l0 259.667 133 0 0 -224.663c0,-92.6652 -7.32859,-156.002 -21.9996,-190.17 -17.8306,-41.6623 -44.3311,-73.5002 -79.1626,-95.8317 -34.8385,-22.1655 -79.1695,-33.3313 -132.834,-33.3313 -58.3383,0 -105.338,12.9979 -141.338,39.0005 -36,25.9958 -61.332,62.1617 -75.9961,108.664 -10.502,32.1697 -15.6666,90.6671 -15.6666,175.499l0 220.833z"
     id="path415" /></glyph>
   <glyph
   unicode="d"
   horiz-adv-x="660"
   id="glyph421"><path
     d="M460 735.998l133 0 0 -735.998 -133 0 0 56.4993c-26.0027,-24.6683 -52.1644,-42.333 -78.333,-53.1668 -26.1686,-10.8339 -54.6671,-16.3303 -85.1707,-16.3303 -68.8334,0 -128.16,26.5005 -178.327,79.6673 -50.1732,52.994 -75.1734,119 -75.1734,197.83 0,81.8313 24.3365,148.833 72.8365,201.17 48.5001,52.1644 107.336,78.333 176.667,78.333 31.9969,0 61.8298,-6.00115 89.8305,-17.8375 28.0007,-11.9954 53.8375,-29.9988 77.6692,-53.8306l0 263.663zm-140.17 -313.996c-41.3305,0 -75.6642,-14.5051 -102.828,-43.6673 -27.337,-29.0032 -41.0055,-66.3376 -41.0055,-111.837 0,-45.8313 13.8344,-83.4975 41.6693,-113.164 27.8348,-29.501 62.0026,-44.3311 102.669,-44.3311 41.8283,0 76.6667,14.4982 104.163,43.6673 27.6689,28.9963 41.5033,67.1603 41.5033,114.333 0,46.1632 -13.8344,83.4975 -41.5033,112.162 -27.496,28.5055 -62.5004,42.8377 -104.667,42.8377z"
     id="path419" /></glyph>
   <glyph
   unicode=" "
   horiz-adv-x="279"
   id="glyph423" />
   <glyph
   unicode="1"
   horiz-adv-x="560"
   id="glyph427"><path
     d="M164.167 718.001l204.834 0 0 -718.001 -136.001 0 0 590 -148.003 0 79.1695 128.001z"
     id="path425" /></glyph>
   <glyph
   unicode="r"
   horiz-adv-x="300"
   id="glyph431"><path
     d="M49.9982 530.999l69.9989 0 0 -77.6633c20.8368,30.6649 42.8399,53.328 66.0017,68.334 23.1692,14.83 47.3358,22.3331 72.3312,22.3331 19.0033,0 39.1727,-5.99949 60.6696,-18.0058l-35.6669 -57.3325c-14.3313,6.16818 -26.3303,9.33661 -36.1656,9.33661 -22.8318,0 -44.8348,-9.33661 -66.0017,-28.0025 -21.1669,-18.6659 -37.3318,-47.8345 -48.502,-87.1612 -8.49316,-30.1735 -12.6664,-91.3345 -12.6664,-183.336l0 -179.501 -69.9989 0 0 530.999z"
     id="path429" /></glyph>
   <glyph
   unicode="a"
   horiz-adv-x="683"
   id="glyph435"><path
     d="M605.002 530.999l0 -530.999 -68.004 0 0 91.3345c-28.6626,-34.8381 -60.6623,-60.9997 -96.3292,-78.338 -35.5055,-17.331 -74.5022,-25.9929 -116.667,-25.9929 -75.0009,0 -139.169,27.1664 -192.336,81.4991 -53.1666,54.4941 -79.6656,120.496 -79.6656,198.496 0,76.1671 26.8363,141.501 80.5017,195.665 53.4966,54.1714 117.995,81.3378 193.494,81.3378 43.4999,0 82.834,-9.16792 118.171,-27.5038 35.1681,-18.3285 66.163,-46.001 92.8307,-83.164l0 97.664 68.004 0zm-273.666 -52.9979c-37.9992,0 -73.1673,-9.33661 -105.167,-28.0025 -32.1684,-18.4972 -57.6699,-44.6661 -76.6658,-78.3307 -19.0033,-33.6646 -28.5012,-69.3315 -28.5012,-107.001 0,-37.1704 9.49796,-72.83 28.6626,-106.832 19.172,-34.002 44.8348,-60.5009 77.1719,-79.3355 32.3298,-18.9959 66.9992,-28.5012 103.994,-28.5012 37.1704,0 72.6686,9.33661 106.003,28.1712 33.5032,18.8272 59.1661,44.1674 77.1645,76.3284 18.0058,31.9997 27.005,68.1653 27.005,108.335 0,61.1684 -20.1694,112.333 -60.6696,153.5 -40.3315,41.1676 -89.9996,61.6671 -148.997,61.6671z"
     id="path433" /></glyph>
   <glyph
   unicode="o"
   horiz-adv-x="640"
   id="glyph439"><path
     d="M316.83 544.003c50.1732,0 97.3389,-12.5001 141.504,-37.5003 44.3311,-25.0002 78.6648,-58.8361 103.499,-101.667 24.8342,-43.0036 37.1684,-89.1668 37.1684,-138.835 0,-50.0003 -12.5001,-96.6683 -37.3343,-140.17 -25.0002,-43.4945 -59.0021,-77.4964 -101.999,-101.999 -43.1695,-24.4955 -90.5012,-36.8296 -142.334,-36.8296 -76.3349,0 -141.504,26.9983 -195.335,80.9948 -54.0034,54.1693 -81.0017,119.836 -81.0017,197.001 0,82.8338 30.5035,151.833 91.5037,207.005 53.4987,47.9954 114.831,71.9999 184.328,71.9999zm2.00499 -125.001c-41.5033,0 -76.003,-14.3322 -103.499,-43.0036 -27.503,-28.8304 -41.3374,-65.501 -41.3374,-110.33 0,-46.0042 13.6685,-83.3316 40.8327,-111.837 27.1711,-28.4985 61.6708,-42.8308 103.499,-42.8308 41.6693,0 76.3349,14.4982 104.17,43.3355 27.6689,28.8304 41.4964,65.9988 41.4964,111.332 0,45.4995 -13.6616,82.3291 -40.8327,110.835 -27.1642,28.3326 -61.9957,42.4989 -104.329,42.4989z"
     id="path437" /></glyph>
   <glyph
   unicode="J"
   horiz-adv-x="481"
   id="glyph443"><path
     d="M322.997 718.002l72.0012 0 0 -484.668c0,-74.5022 -5.8308,-126.334 -17.331,-155.503 -11.6689,-29 -30.8335,-52.3305 -57.9999,-69.6689 -26.9977,-17.4997 -59.8335,-26.1616 -98.1701,-26.1616 -29,0 -57.6625,5.66211 -85.8337,16.8323 -28.1638,11.1629 -59.4961,30.8335 -93.6668,59.1661l38.0065 57.0025c37.6618,-26.1689 68.8327,-44.6661 93.6668,-55.3376 16.3336,-7.16565 32.3298,-10.6641 47.9959,-10.6641 20.4995,0 39.1654,6.16818 55.9977,18.4972 16.8396,12.3364 28.6699,28.8386 35.3368,49.3381 6.66691,20.4995 9.9967,60.1636 9.9967,119l0 482.167z"
     id="path441" /></glyph>
   <glyph
   unicode="i"
   horiz-adv-x="239"
   id="glyph447"><path
     d="M119.836 749.003c23.327,0 43.3286,-8.50393 59.9976,-25.3389 16.835,-16.8281 25.1661,-37.1615 25.1661,-61.1661 0,-23.6658 -8.33109,-43.8333 -24.8342,-60.4954 -16.4962,-16.6691 -36.3318,-25.0002 -59.4999,-25.0002 -23.6658,0 -43.8333,8.49702 -60.5024,25.498 -16.8281,17.0009 -25.1661,37.6662 -25.1661,62.0026 0,23.334 8.338,43.1626 24.8342,59.6658 16.5032,16.4962 36.5047,24.8342 60.0046,24.8342zm-66.8354 -218.005l133 0 0 -530.998 -133 0 0 530.998z"
     id="path445" /></glyph>
   <glyph
   unicode="%"
   horiz-adv-x="859"
   id="glyph451"><path
     d="M659.836 749.998l98.9982 0 -568.837 -798.996 -98.5004 0 487.172 686.163c-29.3351,-4.99865 -56.8381,-8.82888 -82.6679,-11.3317 -25.6639,-2.50278 -49.5026,-3.83714 -71.3362,-3.83714 -22.4974,0 -46.3291,1.16843 -71.4952,3.50528 7.16266,-22.6702 10.8339,-43.3355 10.8339,-61.8367 0,-47.4976 -16.5032,-87.8325 -49.6685,-120.998 -32.9994,-33.1653 -73.3343,-49.6685 -120.832,-49.6685 -47.8363,0 -88.669,16.6691 -122.166,49.8344 -33.5041,33.1653 -50.3391,73.3343 -50.3391,120.5 0,30.4966 7.50143,58.8361 22.5043,85.1638 14.83,26.1686 36,47.3385 62.9982,63.337 27.1642,16.1644 54.1693,24.1636 80.8357,24.1636 20.1675,0 47.8294,-3.83023 83.3316,-11.6635 62.6664,-13.5026 117.997,-20.3334 165.834,-20.3334 43.1695,0 83.3316,3.83023 120.666,11.4976 37.1684,7.66736 71.3362,19.165 102.669,34.4997zm-467.336 -103.001c-22.8362,0 -42.1671,-7.99923 -58.3314,-24.1636 -16.1713,-16.1644 -24.1705,-35.5022 -24.1705,-57.9996 0,-23.0021 7.99923,-42.4989 24.1705,-58.6702 16.1644,-16.1644 35.4953,-24.1636 58.3314,-24.1636 22.8362,0 42.1671,7.99923 58.3314,24.1636 16.1713,16.1713 24.1705,35.6681 24.1705,58.6702 0,22.8362 -7.99923,42.1671 -24.1705,58.1655 -16.1644,15.9985 -35.4953,23.9977 -58.3314,23.9977zm475.003 -324c47.1657,0 87.6665,-16.8281 121.164,-50.3322 33.4972,-33.4972 50.3322,-73.998 50.3322,-121.33 0,-47.1657 -16.835,-87.5006 -50.3322,-121.005 -33.4972,-33.4972 -73.998,-50.3322 -121.164,-50.3322 -47.5045,0 -88.0053,16.835 -121.502,50.3322 -33.3313,33.5041 -50.0003,73.839 -50.0003,121.005 0,47.3316 16.6691,87.8325 50.0003,121.33 33.4972,33.5041 73.998,50.3322 121.502,50.3322zm0.331861 -88.994c-23.168,0 -42.6718,-8.17207 -58.6702,-24.3365 -16.1644,-16.1644 -24.1636,-35.5022 -24.1636,-58.1655 0,-22.6702 7.99923,-42.0011 24.1636,-58.1655 15.9985,-16.1713 35.5022,-24.3365 58.6702,-24.3365 22.6633,0 42.0011,8.16516 57.9996,24.3365 16.1644,16.1644 24.1636,35.4953 24.1636,58.1655 0,22.6633 -7.99923,42.0011 -24.1636,58.1655 -15.9985,16.1644 -35.3363,24.3365 -57.9996,24.3365z"
     id="path449" /></glyph>
  </font>
</defs>
</svg>
