<?xml version="1.0" encoding="UTF-8" standalone="no"?>
<!-- Creator: CorelDRAW X7 -->

<svg
   xml:space="preserve"
   width="1260px"
   height="411px"
   version="1.1"
   style="shape-rendering:geometricPrecision; text-rendering:geometricPrecision; image-rendering:optimizeQuality; fill-rule:evenodd; clip-rule:evenodd"
   viewBox="0 0 1260 411"
   id="svg251"
   sodipodi:docname="slider_gutschein_weihnachtsmann_fr.svg"
   inkscape:version="1.2 (dc2aedaf03, 2022-05-15)"
   xmlns:inkscape="http://www.inkscape.org/namespaces/inkscape"
   xmlns:sodipodi="http://sodipodi.sourceforge.net/DTD/sodipodi-0.dtd"
   xmlns:xlink="http://www.w3.org/1999/xlink"
   xmlns="http://www.w3.org/2000/svg"
   xmlns:svg="http://www.w3.org/2000/svg"><sodipodi:namedview
   id="namedview253"
   pagecolor="#ffffff"
   bordercolor="#000000"
   borderopacity="0.25"
   inkscape:showpageshadow="2"
   inkscape:pageopacity="0.0"
   inkscape:pagecheckerboard="0"
   inkscape:deskcolor="#d1d1d1"
   showgrid="false"
   inkscape:zoom="1.2722222"
   inkscape:cx="596.9869"
   inkscape:cy="205.15284"
   inkscape:window-width="3840"
   inkscape:window-height="2054"
   inkscape:window-x="-11"
   inkscape:window-y="1339"
   inkscape:window-maximized="1"
   inkscape:current-layer="Ebene_x0020_1" />
 <defs
   id="defs210">
  <font
   id="FontID1"
   horiz-adv-x="667"
   font-variant="normal"
   style="fill-rule:nonzero"
   font-style="normal"
   font-weight="400">
	<font-face
   font-family="Arial"
   id="font-face2">
	</font-face>
   <missing-glyph
   id="missing-glyph6"><path
     d="M0 0z"
     id="path4" /></missing-glyph>
   <glyph
   unicode="f"
   horiz-adv-x="277"
   id="glyph10"><path
     d="M87.0079 0l0 451.008 -78 0 0 68 78 0 0 54.9921c0,34.8346 2.99213,60.6614 9.16535,77.4961 8.48819,22.6772 23.1654,41.1654 44.4882,55.3386 21.1654,14.1732 51.0079,21.1654 89.3386,21.1654 24.8346,0 52.1732,-2.99213 82.1732,-8.83465l-13.1654 -76.9921c-18.3465,3.16535 -35.5118,4.83465 -51.8425,4.83465 -26.6614,0 -45.4961,-5.66929 -56.6614,-17.0079 -11.0079,-11.3386 -16.5039,-32.5039 -16.5039,-63.4961l0 -47.4961 101.008 0 0 -68 -100 0 0 -451.008 -88 0z"
     id="path8" /></glyph>
   <glyph
   unicode="t"
   horiz-adv-x="277"
   id="glyph14"><path
     d="M257.008 78.5039l12 -77.6693c-24.6772,-5.16535 -46.8346,-7.84252 -66.1732,-7.84252 -31.8268,0 -56.5039,5.00787 -74.1732,15.1811 -17.4961,10.1575 -29.8268,23.3228 -36.9921,39.8268 -7.16535,16.5039 -10.6614,51.1654 -10.6614,104l0 299.008 -65.0079 0 0 68 65.0079 0 0 128.331 88 52.8346 0 -181.165 88 0 0 -68 -88 0 0 -304c0,-25.1811 1.49606,-41.3386 4.66142,-48.5039 2.99213,-7.16535 8,-12.8346 14.9921,-17.1654 7.00787,-4.17323 17.0079,-6.33071 30,-6.33071 9.66929,0 22.5039,1.16535 38.3465,3.49606z"
     id="path12" /></glyph>
   <glyph
   unicode="c"
   horiz-adv-x="500"
   id="glyph18"><path
     d="M405.008 190l86 -12c-9.51181,-59.1654 -33.5118,-105.339 -72.3465,-138.835 -38.8346,-33.4961 -86.6614,-50.1732 -143.165,-50.1732 -70.8346,0 -127.827,23.1811 -170.835,69.5118 -43.1654,46.3307 -64.6614,112.661 -64.6614,198.992 0,56 9.33858,104.835 27.8268,146.835 18.5039,41.8425 46.6772,73.3386 84.6772,94.1732 37.8268,20.9921 78.9921,31.4961 123.669,31.4961 56.1575,0 102.331,-14.1732 138,-42.6614 35.8268,-28.5039 58.8346,-69.0079 68.8346,-121.339l-85.0079 -12.9921c-8.17323,34.8189 -22.5039,60.9921 -43.3386,78.6614 -20.6614,17.4961 -45.6535,26.3307 -74.9921,26.3307 -44.3307,0 -80.3307,-15.8268 -108.173,-47.4961 -27.6693,-31.8425 -41.4961,-81.8425 -41.4961,-150.504 0,-69.6693 13.3386,-120.173 40,-151.669 26.8346,-31.4961 61.6693,-47.3228 104.504,-47.3228 34.6614,0 63.4961,10.4882 86.5039,31.6535 23.1654,21.0079 37.8268,53.5118 44,97.3386z"
     id="path16" /></glyph>
   <glyph
   unicode="-"
   horiz-adv-x="333"
   id="glyph22"><path
     d="M31.0079 215.008l0 88 272 0 0 -88 -272 0z"
     id="path20" /></glyph>
   <glyph
   unicode="L"
   horiz-adv-x="556"
   id="glyph26"><path
     d="M73.0079 0l0 716 94.9921 0 0 -632 352 0 0 -84 -446.992 0z"
     id="path24" /></glyph>
   <glyph
   unicode="n"
   horiz-adv-x="556"
   id="glyph30"><path
     d="M66 0l0 519.008 79.0079 0 0 -73.6693c38,56.4882 92.9921,84.6614 164.819,84.6614 31.3386,0 60,-5.66929 86.1732,-16.8346 26.1732,-11.1654 45.8268,-26 58.8346,-44.1575 12.9921,-18.1732 22.1732,-39.8425 27.3386,-64.8346 3.16535,-16.3465 4.83465,-44.8346 4.83465,-85.5118l0 -318.661 -88 0 0 315.339c0,35.8268 -3.33858,62.6614 -10.1732,80.3307 -6.83465,17.6693 -19.0079,31.8268 -36.3307,42.5039 -17.3386,10.4882 -37.8425,15.8268 -61.1654,15.8268 -37.3386,0 -69.5118,-11.8268 -96.6772,-35.6693 -27.1654,-23.6693 -40.6614,-68.8346 -40.6614,-135.165l0 -283.165 -88 0z"
     id="path28" /></glyph>
   <glyph
   unicode="'"
   horiz-adv-x="191"
   id="glyph34"><path
     d="M67.4961 463.008l-22.4882 133.496 0 119.496 100 0 0 -119.496 -23.5118 -133.496 -54 0z"
     id="path32" /></glyph>
   <glyph
   unicode="k"
   horiz-adv-x="500"
   id="glyph38"><path
     d="M66.3307 0l0 716 88 0 0 -407.827 208 210.835 113.669 0 -198 -192.835 218 -326.173 -108.331 0 -172.331 265.165 -61.0079 -59.3386 0 -205.827 -88 0z"
     id="path36" /></glyph>
   <glyph
   unicode="h"
   horiz-adv-x="556"
   id="glyph42"><path
     d="M66 0l0 716 88 0 0 -257.669c40.8346,47.8425 92.3307,71.6693 154.661,71.6693 38.1732,0 71.3386,-7.49606 99.6693,-22.6614 28.1732,-15.1654 48.3307,-36 60.5039,-62.6772 12.1732,-26.6614 18.1732,-65.4961 18.1732,-116.157l0 -328.504 -88 0 0 328.173c0,43.8268 -9.51181,75.8268 -28.3465,95.8268 -18.9921,20 -45.6535,30 -80.3307,30 -25.8268,0 -50.1575,-6.66142 -72.9921,-20.1732 -22.8346,-13.4961 -39.0079,-31.8268 -48.8346,-54.9921 -9.66929,-23.0079 -14.5039,-54.8346 -14.5039,-95.4961l0 -283.339 -88 0z"
     id="path40" /></glyph>
   <glyph
   unicode="!"
   horiz-adv-x="277"
   id="glyph46"><path
     d="M113.008 178l-27.0079 379.339 0 158.661 109.008 0 0 -158.661 -25.0079 -379.339 -56.9921 0zm-23.0079 -178l0 100 101.008 0 0 -100 -101.008 0z"
     id="path44" /></glyph>
   <glyph
   unicode="e"
   horiz-adv-x="556"
   id="glyph50"><path
     d="M420 168l91.0079 -12c-14.1732,-52.8346 -40.6772,-94 -79.3386,-123.165 -38.6614,-29.1654 -88,-43.8425 -148.173,-43.8425 -75.6693,0 -135.669,23.3386 -180,70.0157 -44.3307,46.4882 -66.4882,112 -66.4882,196.157 0,87.0079 22.3307,154.661 67.1654,202.661 44.8346,48.1732 102.992,72.1732 174.488,72.1732 69.1654,0 125.669,-23.4961 169.512,-70.6614 43.8268,-47.1654 65.8268,-113.512 65.8268,-199.008 0,-5.16535 -0.173228,-12.9921 -0.503937,-23.3228l-386.488 0c3.32283,-56.8346 19.3228,-100.504 48.3307,-130.677 28.8346,-30.1575 64.9921,-45.3228 108.157,-45.3228 32.1732,0 59.6693,8.48819 82.3307,25.4961 22.8346,16.9921 40.8346,44.1575 54.1732,81.4961zm-288 141.008l289.008 0c-3.84252,43.6535 -15.0079,76.3307 -33.1811,98.1575 -27.8268,33.8425 -64.1575,50.8346 -108.661,50.8346 -40.3307,0 -74.1575,-13.4961 -101.669,-40.5039 -27.3228,-26.9921 -42.4882,-63.1654 -45.4961,-108.488z"
     id="path48" /></glyph>
   <glyph
   unicode="v"
   horiz-adv-x="500"
   id="glyph54"><path
     d="M207.827 0l-195.827 519.008 94.1732 0 110.992 -310.835c12,-33.5118 23.1654,-68.3465 33.3386,-104.504 7.82677,27.3386 18.6614,60.1575 32.8346,98.6614l115.323 316.677 90.3465 0 -196.504 -519.008 -84.6772 0z"
     id="path52" /></glyph>
   <glyph
   unicode="b"
   horiz-adv-x="556"
   id="glyph58"><path
     d="M147.008 0l-82 0 0 716 88 0 0 -255.496c37.1654,46.3307 84.4882,69.4961 142.157,69.4961 31.8425,0 62.1732,-6.33071 90.6614,-19.1654 28.5039,-12.8346 51.8425,-31.0079 70.3465,-54.1732 18.3307,-23.3228 32.8346,-51.3228 43.1654,-84.1575 10.4882,-32.6772 15.6693,-67.8425 15.6693,-105.165 0,-88.6772 -22,-157.339 -65.8425,-205.669 -44,-48.5039 -96.6614,-72.6772 -158.157,-72.6772 -61.1811,0 -109.181,25.5118 -144,76.3465l0 -65.3386zm-1.00787 263.339c0,-62 8.50394,-106.835 25.3386,-134.504 27.6693,-45.1654 64.9921,-67.8268 112.157,-67.8268 38.5039,0 71.6693,16.6614 99.5118,50 28,33.3228 42,82.9921 42,148.992 0,67.6693 -13.3386,117.496 -40.1732,149.669 -26.8346,32.1575 -59.3386,48.3307 -97.3386,48.3307 -38.4882,0 -71.6693,-16.6614 -99.4961,-50 -28,-33.3386 -42,-81.4961 -42,-144.661z"
     id="path56" /></glyph>
   <glyph
   unicode="û"
   horiz-adv-x="556"
   id="glyph62"><path
     d="M405.008 0l0 77.1654c-40.3465,-58.8346 -95.0079,-88.1732 -164.173,-88.1732 -30.5039,0 -59.0079,5.84252 -85.4961,17.5118 -26.5039,11.8268 -46.1732,26.5039 -59.0079,44.1575 -12.8346,17.8425 -21.8268,39.5118 -26.9921,65.1654 -3.51181,17.3386 -5.33858,44.6772 -5.33858,82l0 321.181 88 0 0 -287.181c0,-45.8268 1.82677,-76.8189 5.33858,-92.6614 5.49606,-23.1654 17.1654,-41.1654 35.1654,-54.3307 17.8268,-13.1654 39.8268,-19.8268 66.1575,-19.8268 26.3465,0 51.0079,6.66142 74,20.1575 23.0079,13.4961 39.3386,32 49.0079,55.1654 9.49606,23.1654 14.3307,57.0079 14.3307,101.165l0 277.512 88 0 0 -519.008 -78.9921 0zm-129.008 666l-54.5039 -82.9921 -100 0 104.504 136.992 93.0079 0 111.496 -136.992 -100 0 -54.5039 82.9921z"
     id="path60" /></glyph>
   <glyph
   unicode="ê"
   horiz-adv-x="556"
   id="glyph66"><path
     d="M420 168l91.0079 -12c-14.1732,-52.8346 -40.6772,-94 -79.3386,-123.165 -38.6614,-29.1654 -88,-43.8425 -148.173,-43.8425 -75.6693,0 -135.669,23.3386 -180,70.0157 -44.3307,46.4882 -66.4882,112 -66.4882,196.157 0,87.0079 22.3307,154.661 67.1654,202.661 44.8346,48.1732 102.992,72.1732 174.488,72.1732 69.1654,0 125.669,-23.4961 169.512,-70.6614 43.8268,-47.1654 65.8268,-113.512 65.8268,-199.008 0,-5.16535 -0.173228,-12.9921 -0.503937,-23.3228l-386.488 0c3.32283,-56.8346 19.3228,-100.504 48.3307,-130.677 28.8346,-30.1575 64.9921,-45.3228 108.157,-45.3228 32.1732,0 59.6693,8.48819 82.3307,25.4961 22.8346,16.9921 40.8346,44.1575 54.1732,81.4961zm-288 141.008l289.008 0c-3.84252,43.6535 -15.0079,76.3307 -33.1811,98.1575 -27.8268,33.8425 -64.1575,50.8346 -108.661,50.8346 -40.3307,0 -74.1575,-13.4961 -101.669,-40.5039 -27.3228,-26.9921 -42.4882,-63.1654 -45.4961,-108.488zm145.008 356.992l-54.5039 -82.9921 -100 0 104.504 136.992 92.9921 0 111.496 -136.992 -100 0 -54.4882 82.9921z"
     id="path64" /></glyph>
   <glyph
   unicode="s"
   horiz-adv-x="500"
   id="glyph70"><path
     d="M31.0079 155.008l86.9921 14c4.83465,-34.8346 18.5039,-61.5118 40.8346,-80.1732 22.3307,-18.5039 53.6693,-27.8268 93.6693,-27.8268 40.5039,0 70.5039,8.15748 90.1575,24.6614 19.5118,16.3307 29.3386,35.6693 29.3386,57.8268 0,19.8425 -8.83465,35.5118 -26.3307,46.8346 -12.3307,7.84252 -42.3307,17.6693 -90,29.8425 -64.3307,16.1575 -108.835,30.1575 -133.843,42 -24.8189,12 -43.6535,28.3307 -56.4882,49.3228 -12.8346,20.8346 -19.3386,44 -19.3386,69.3386 0,23.1654 5.33858,44.5039 15.8268,64.1732 10.6772,19.6535 25.0079,36 43.1811,48.9921 13.6535,10 32.3307,18.5039 55.8268,25.4961 23.6693,7.00787 48.8346,10.5039 75.8268,10.5039 40.6772,0 76.3465,-5.82677 107.008,-17.6693 30.8346,-11.6693 53.4961,-27.6693 68.1575,-47.6693 14.5039,-20.1575 24.6772,-46.9921 30.1732,-80.6614l-86 -12c-3.82677,27.0079 -15.1654,48.1732 -33.8268,63.3386 -18.6772,15.1654 -45.0079,22.6614 -79.1654,22.6614 -40.1732,0 -69.0079,-6.66142 -86.1732,-20 -17.1654,-13.3386 -25.8268,-28.9921 -25.8268,-46.8346 0,-11.3386 3.49606,-21.6693 10.6614,-30.8346 7.16535,-9.32283 18.3307,-17.1654 33.6693,-23.3228 8.83465,-3.33858 34.4882,-10.8346 77.4961,-22.5039 62,-16.5039 105.339,-30.1732 130,-40.6772 24.6614,-10.4882 44,-26 58,-46 14.1732,-20.1575 21.1654,-45.1654 21.1654,-75.1654 0,-29.1654 -8.50394,-56.6614 -25.6693,-82.4882 -17.1654,-25.8425 -41.8268,-45.8425 -74,-60 -32.3307,-14.1732 -68.8346,-21.1811 -109.496,-21.1811 -67.3386,0 -118.835,14.0157 -154.173,41.8425 -35.3228,28 -57.8268,69.3386 -67.6535,124.173z"
     id="path68" /></glyph>
   <glyph
   unicode="p"
   horiz-adv-x="556"
   id="glyph74"><path
     d="M66 -199.008l0 718.016 80 0 0 -68.1732c18.8346,26.3307 40.1732,46.1732 64,59.3386 23.6693,13.1654 52.5039,19.8268 86.3307,19.8268 44.3307,0 83.3386,-11.3386 117.165,-34.1732 33.8425,-22.6614 59.3386,-54.8189 76.6772,-96.1575 17.1654,-41.4961 25.8268,-86.8346 25.8268,-136.331 0,-52.8346 -9.49606,-100.504 -28.5039,-143.008 -18.9921,-42.3307 -46.6614,-74.8346 -82.9921,-97.4961 -36.1732,-22.5039 -74.3307,-33.8425 -114.331,-33.8425 -29.3386,0 -55.6693,6.17323 -78.8346,18.5039 -23.3386,12.3307 -42.3307,27.8425 -57.3386,46.6772l0 -253.181 -88 0zm80 455.339c0,-66.5039 13.4961,-115.669 40.3307,-147.496 27.0079,-31.8268 59.6693,-47.8268 98,-47.8268 39.0079,0 72.3307,16.4882 100,49.4961 27.8425,32.9921 41.6693,84 41.6693,153.165 0,66 -13.4961,115.339 -40.6614,148.157 -27.1654,32.8346 -59.5118,49.1811 -97.1654,49.1811 -37.3386,0 -70.3465,-17.5118 -99.0079,-52.3465 -28.8346,-34.9921 -43.1654,-85.6535 -43.1654,-152.331z"
     id="path72" /></glyph>
   <glyph
   unicode=","
   horiz-adv-x="277"
   id="glyph78"><path
     d="M89.0079 0l0 100 100 0 0 -100c0,-36.8346 -6.50394,-66.6614 -19.6693,-89.3386 -13.0079,-22.6614 -33.8425,-40.3307 -62.3307,-52.6614l-24 38c18.6614,8.17323 32.3307,20.1732 40.9921,35.8268 8.83465,15.8425 13.8268,38.5039 14.8346,68.1732l-49.8268 0z"
     id="path76" /></glyph>
   <glyph
   unicode="m"
   horiz-adv-x="833"
   id="glyph82"><path
     d="M66 0l0 519.008 79.0079 0 0 -73.3386c16.1575,25.3386 37.8268,45.8268 64.8189,61.1654 27.0079,15.4961 57.6693,23.1654 92.1732,23.1654 38.3307,0 69.8268,-8 94.3307,-23.8268 24.5039,-16 41.8425,-38.1732 51.8425,-66.8346 41.3228,60.4882 94.8346,90.6614 160.835,90.6614 51.6535,0 91.4961,-14.1732 119.165,-42.6614 27.8268,-28.5039 41.8268,-72.3307 41.8268,-131.512l0 -355.827 -88 0 0 326.661c0,35.0079 -2.99213,60.3465 -8.66142,75.8425 -5.66929,15.4961 -16,27.8268 -31.1654,37.3228 -15.0079,9.51181 -32.6772,14.1732 -52.8346,14.1732 -36.6772,0 -67.0079,-12.1732 -91.1654,-36.3307 -24.1732,-24.3307 -36.1732,-63.1654 -36.1732,-116.504l0 -301.165 -88 0 0 336.835c0,38.9921 -7.16535,68.3307 -21.4961,87.8268 -14.3307,19.5118 -37.8425,29.3386 -70.3307,29.3386 -24.6772,0 -47.5118,-6.50394 -68.5039,-19.4961 -21.0079,-13.0079 -36.1732,-32 -45.6693,-57.1654 -9.33858,-25.0079 -14,-61.1654 -14,-108.331l0 -269.008 -88 0z"
     id="path80" /></glyph>
   <glyph
   unicode="K"
   horiz-adv-x="667"
   id="glyph86"><path
     d="M73.0079 0l0 716 94.9921 0 0 -354.992 355.669 354.992 128.331 0 -300.331 -290.331 313.339 -425.669 -125.008 0 -254.835 361.339 -117.165 -113.339 0 -248 -94.9921 0z"
     id="path84" /></glyph>
   <glyph
   unicode="x"
   horiz-adv-x="500"
   id="glyph90"><path
     d="M6 0l189.496 268.835 -175.496 250.173 108.173 0 82 -122.504c15.1654,-23.0079 27.1654,-41.6693 35.6535,-56.3307 14.8346,20.8346 28,39.6535 39.8425,56.4882l86.3307 122.346 107.496 0 -176.488 -250.173 188 -268.835 -107.008 0 -107.339 160 -24.4882 38.5039 -138.677 -198.504 -107.496 0z"
     id="path88" /></glyph>
   <glyph
   unicode="V"
   horiz-adv-x="667"
   id="glyph94"><path
     d="M281.008 0l-276.677 716 102.677 0 186 -520.331c14.8189,-41.6693 27.4961,-80.6614 37.4961,-117.165 10.9921,39.1654 23.8268,78.1575 38.5039,117.165l192.992 520.331 96.6614 0 -279.165 -716 -98.4882 0z"
     id="path92" /></glyph>
   <glyph
   unicode="d"
   horiz-adv-x="556"
   id="glyph98"><path
     d="M401.008 0l0 65.8268c-32.8346,-51.1654 -81.1811,-76.8346 -145.008,-76.8346 -41.3386,0 -79.3386,11.3386 -113.827,34.1732 -34.6772,22.6614 -61.5118,54.5039 -80.6772,95.1654 -18.9921,40.8346 -28.4882,87.6693 -28.4882,140.677 0,51.6535 8.66142,98.4882 25.8268,140.661 17.3386,42 43.1654,74.3307 77.6693,96.6614 34.3307,22.5039 72.9921,33.6693 115.496,33.6693 31.3386,0 59.1654,-6.66142 83.4961,-19.8268 24.3307,-13.1654 44.1732,-30.5039 59.5118,-51.6693l0 257.496 88 0 0 -716 -82 0zm-278 258.835c0,-66.3307 14,-115.827 42.1575,-148.661 28,-32.8346 61.1654,-49.1654 99.3386,-49.1654 38.5039,0 71.1654,15.6535 98.1575,46.9921 26.8346,31.3386 40.3465,79.1654 40.3465,143.496 0,70.6772 -13.6693,122.677 -41.1811,155.843 -27.3228,33.1654 -61.1654,49.6693 -101.323,49.6693 -39.1654,0 -71.8425,-15.8425 -98.1732,-47.6693 -26.1575,-31.8425 -39.3228,-82 -39.3228,-150.504z"
     id="path96" /></glyph>
   <glyph
   unicode=" "
   horiz-adv-x="277"
   id="glyph100" />
   <glyph
   unicode="u"
   horiz-adv-x="556"
   id="glyph104"><path
     d="M405.008 0l0 77.1654c-40.3465,-58.8346 -95.0079,-88.1732 -164.173,-88.1732 -30.5039,0 -59.0079,5.84252 -85.4961,17.5118 -26.5039,11.8268 -46.1732,26.5039 -59.0079,44.1575 -12.8346,17.8425 -21.8268,39.5118 -26.9921,65.1654 -3.51181,17.3386 -5.33858,44.6772 -5.33858,82l0 321.181 88 0 0 -287.181c0,-45.8268 1.82677,-76.8189 5.33858,-92.6614 5.49606,-23.1654 17.1654,-41.1654 35.1654,-54.3307 17.8268,-13.1654 39.8268,-19.8268 66.1575,-19.8268 26.3465,0 51.0079,6.66142 74,20.1575 23.0079,13.4961 39.3386,32 49.0079,55.1654 9.49606,23.1654 14.3307,57.0079 14.3307,101.165l0 277.512 88 0 0 -519.008 -78.9921 0z"
     id="path102" /></glyph>
   <glyph
   unicode="?"
   horiz-adv-x="556"
   id="glyph108"><path
     d="M231.008 176c-0.346457,11.6693 -0.503937,20.5039 -0.503937,26.3307 0,34.5039 4.83465,64.1732 14.6614,89.1654 7.16535,19.0079 18.6614,38 34.6614,57.1654 11.6693,14 32.8346,34.3465 63.1811,61.1654 30.4882,26.8346 50.1575,48.1732 59.3228,64.1732 9.16535,16.1732 13.6693,33.4961 13.6693,52.5039 0,34.3307 -13.3386,64.5039 -40,90.5039 -26.6614,26 -59.3386,38.9921 -98,38.9921 -37.4961,0 -68.6614,-11.8268 -93.6693,-35.3386 -25.1654,-23.6535 -41.4961,-60.4882 -49.3228,-110.661l-90 11.0079c8.15748,66.8189 32.1575,118.157 72.3307,153.654 40.1575,35.5118 93.1654,53.3386 159.165,53.3386 69.8268,0 125.496,-18.9921 167.165,-57.1654 41.4961,-38.1732 62.3307,-84.3307 62.3307,-138.504 0,-31.3228 -7.33858,-60.1575 -22,-86.5039 -14.6614,-26.4882 -43.3386,-58.4882 -86,-96.3307 -28.6614,-25.3228 -47.3386,-44 -56.1732,-56 -8.8189,-12 -15.3228,-25.8268 -19.4961,-41.4961 -4.15748,-15.4961 -6.66142,-40.8346 -7.32283,-76l-84 0zm-16 -176l0 100 100 0 0 -100 -100 0z"
     id="path106" /></glyph>
   <glyph
   unicode="r"
   horiz-adv-x="333"
   id="glyph112"><path
     d="M65.0079 0l0 519.008 78.9921 0 0 -79.5118c20.1732,36.8346 38.8346,61.1654 56,72.8346 17.1654,11.8425 36,17.6693 56.5039,17.6693 29.6693,0 59.8268,-9.33858 90.5039,-27.8268l-31.3386 -81.1654c-21.3386,12 -42.6614,18 -64,18 -19.1654,0 -36.3307,-5.84252 -51.4961,-17.3386 -15.1654,-11.4961 -26,-27.4961 -32.5039,-48 -9.84252,-31.1654 -14.6614,-65.3386 -14.6614,-102.504l0 -271.165 -88 0z"
     id="path110" /></glyph>
   <glyph
   unicode="a"
   horiz-adv-x="556"
   id="glyph116"><path
     d="M405.008 65.0079c-32.6772,-27.8425 -64.1732,-47.3386 -94.3465,-58.8346 -30.1575,-11.5118 -62.4882,-17.1811 -97.1654,-17.1811 -56.9921,0 -100.835,13.8425 -131.496,41.6693 -30.6614,27.6693 -46,63.1654 -46,106.346 0,25.3228 5.82677,48.4882 17.3386,69.4961 11.6693,20.9921 26.8346,37.6693 45.4961,50.3307 18.8346,12.6614 39.8268,22.3307 63.3386,28.8346 17.3228,4.50394 43.4961,8.83465 78.3307,13.1654 70.9921,8.33071 123.496,18.5039 156.992,30.1732 0.330709,12 0.503937,19.6535 0.503937,22.8189 0,35.6693 -8.33071,60.8346 -24.9921,75.5118 -22.5039,19.8268 -56,29.6693 -100.346,29.6693 -41.4961,0 -72.1575,-7.33858 -91.8268,-21.8425 -19.8268,-14.5039 -34.3307,-40.1575 -43.8268,-77.1654l-86 12c7.82677,36.8346 20.6614,66.6614 38.6614,89.3386 18,22.6614 44,40 78,52.3307 33.8268,12.1575 73.3386,18.3307 118,18.3307 44.3307,0 80.5039,-5.16535 108.331,-15.6693 27.6693,-10.5039 48.1732,-23.4961 61.1654,-39.3228 13.0079,-15.8425 22.1732,-35.8425 27.4961,-60 2.83465,-15.0079 4.34646,-42 4.34646,-80.8346l0 -116.677c0,-81.4961 1.82677,-132.992 5.49606,-154.835 3.49606,-21.8268 10.8346,-42.6614 21.4961,-62.6614l-92 0c-8.83465,18.5039 -14.5039,40.1732 -16.9921,65.0079zm-7.00787 194.992c-32,-12.9921 -80,-24 -144,-32.9921 -36.3307,-5.1811 -62,-11.0079 -76.9921,-17.5118 -15.0079,-6.48819 -26.5039,-16 -34.6772,-28.3307 -8.15748,-12.5039 -12.3307,-26.3307 -12.3307,-41.6693 0,-23.1654 8.83465,-42.6614 26.6614,-58.1575 17.8425,-15.5118 43.8425,-23.3386 78,-23.3386 33.8425,0 64,7.33858 90.5039,22.1732 26.3307,14.6614 45.8425,34.8346 58.1732,60.3307 9.49606,19.8268 14.1575,48.9921 14.1575,87.4961l0.503937 32z"
     id="path114" /></glyph>
   <glyph
   unicode="o"
   horiz-adv-x="556"
   id="glyph120"><path
     d="M33.0079 259.496c0,95.8425 26.6614,166.835 80.1575,213.008 44.5039,38.3307 99.0079,57.4961 163.165,57.4961 71.1654,0 129.496,-23.3386 174.835,-70 45.1654,-46.5039 67.8425,-110.992 67.8425,-193.165 0,-66.6614 -10,-119.008 -30,-157.165 -20,-38.1732 -49.1811,-67.8425 -87.5118,-89.0079 -38.1575,-21.1654 -80,-31.6693 -125.165,-31.6693 -72.6614,0 -131.323,23.1811 -176.157,69.6693 -44.8346,46.5039 -67.1654,113.512 -67.1654,200.835zm90 -0.15748c0,-66.3307 14.4882,-116 43.4961,-148.835 29.1654,-33.0079 65.6693,-49.4961 109.827,-49.4961 43.6693,0 80,16.4882 109.165,49.6535 29.0079,33.1654 43.5118,83.6693 43.5118,151.512 0,64 -14.6772,112.488 -43.8425,145.323 -29.1654,33.0079 -65.4961,49.5118 -108.835,49.5118 -44.1575,0 -80.6614,-16.3465 -109.827,-49.1811 -29.0079,-32.8189 -43.4961,-82.3307 -43.4961,-148.488z"
     id="path118" /></glyph>
   <glyph
   unicode="l"
   horiz-adv-x="222"
   id="glyph124"><path
     d="M64 0l0 716 88 0 0 -716 -88 0z"
     id="path122" /></glyph>
   <glyph
   unicode="à"
   horiz-adv-x="556"
   id="glyph128"><path
     d="M405.008 65.0079c-32.6772,-27.8425 -64.1732,-47.3386 -94.3465,-58.8346 -30.1575,-11.5118 -62.4882,-17.1811 -97.1654,-17.1811 -56.9921,0 -100.835,13.8425 -131.496,41.6693 -30.6614,27.6693 -46,63.1654 -46,106.346 0,25.3228 5.82677,48.4882 17.3386,69.4961 11.6693,20.9921 26.8346,37.6693 45.4961,50.3307 18.8346,12.6614 39.8268,22.3307 63.3386,28.8346 17.3228,4.50394 43.4961,8.83465 78.3307,13.1654 70.9921,8.33071 123.496,18.5039 156.992,30.1732 0.330709,12 0.503937,19.6535 0.503937,22.8189 0,35.6693 -8.33071,60.8346 -24.9921,75.5118 -22.5039,19.8268 -56,29.6693 -100.346,29.6693 -41.4961,0 -72.1575,-7.33858 -91.8268,-21.8425 -19.8268,-14.5039 -34.3307,-40.1575 -43.8268,-77.1654l-86 12c7.82677,36.8346 20.6614,66.6614 38.6614,89.3386 18,22.6614 44,40 78,52.3307 33.8268,12.1575 73.3386,18.3307 118,18.3307 44.3307,0 80.5039,-5.16535 108.331,-15.6693 27.6693,-10.5039 48.1732,-23.4961 61.1654,-39.3228 13.0079,-15.8425 22.1732,-35.8425 27.4961,-60 2.83465,-15.0079 4.34646,-42 4.34646,-80.8346l0 -116.677c0,-81.4961 1.82677,-132.992 5.49606,-154.835 3.49606,-21.8268 10.8346,-42.6614 21.4961,-62.6614l-92 0c-8.83465,18.5039 -14.5039,40.1732 -16.9921,65.0079zm-7.00787 194.992c-32,-12.9921 -80,-24 -144,-32.9921 -36.3307,-5.1811 -62,-11.0079 -76.9921,-17.5118 -15.0079,-6.48819 -26.5039,-16 -34.6772,-28.3307 -8.15748,-12.5039 -12.3307,-26.3307 -12.3307,-41.6693 0,-23.1654 8.83465,-42.6614 26.6614,-58.1575 17.8425,-15.5118 43.8425,-23.3386 78,-23.3386 33.8425,0 64,7.33858 90.5039,22.1732 26.3307,14.6614 45.8425,34.8346 58.1732,60.3307 9.49606,19.8268 14.1575,48.9921 14.1575,87.4961l0.503937 32zm-36 323.008l-70.9921 0 -113.008 136.992 118 0 66 -136.992z"
     id="path126" /></glyph>
   <glyph
   unicode="i"
   horiz-adv-x="222"
   id="glyph132"><path
     d="M66 616l0 100 88 0 0 -100 -88 0zm0 -616l0 519.008 88 0 0 -519.008 -88 0z"
     id="path130" /></glyph>
   <glyph
   unicode="z"
   horiz-adv-x="500"
   id="glyph136"><path
     d="M19.4961 0l0 71.6693 328.677 379.339c-37.3386,-2 -70.1732,-3.00787 -98.5039,-3.00787l-210.173 0 0 71.0079 423.008 0 0 -57.8425 -281.339 -328.992 -53.8268 -61.1654c39.4961,3.32283 76.4882,4.99213 110.992,4.99213l240.173 0 0 -76 -459.008 0z"
     id="path134" /></glyph>
  </font>
  <font
   id="FontID0"
   horiz-adv-x="739"
   font-variant="normal"
   style="fill-rule:nonzero"
   font-weight="700">
	<font-face
   font-family="Century Gothic"
   id="font-face139">
	</font-face>
   <missing-glyph
   id="missing-glyph143"><path
     d="M0 0z"
     id="path141" /></missing-glyph>
   <glyph
   unicode="t"
   horiz-adv-x="299"
   id="glyph147"><path
     d="M83.0019 726.997l132.998 0 0 -195.998 78.998 0 0 -114.998 -78.998 0 0 -416.002 -132.998 0 0 416.002 -68.0049 0 0 114.998 68.0049 0 0 195.998z"
     id="path145" /></glyph>
   <glyph
   unicode="c"
   horiz-adv-x="640"
   id="glyph151"><path
     d="M587.001 423l-110.835 -60.998c-20.8346,21.8356 -41.3326,36.8326 -61.6712,45.3277 -20.3297,8.50393 -44.1584,12.6673 -71.495,12.6673 -49.8366,0 -90.1682,-14.8287 -120.836,-44.3267 -30.8356,-29.6663 -46.1692,-67.4999 -46.1692,-113.837 0,-45 14.8376,-81.6643 44.3356,-110.17 29.6663,-28.497 68.5009,-42.6614 116.672,-42.6614 59.4921,0 105.83,20.3297 139.163,60.998l104.837 -71.9999c-57.0029,-74.0019 -137.338,-111.003 -241.175,-111.003 -93.4989,0 -166.659,27.6732 -219.499,82.8336 -52.8307,55.1692 -79.3346,119.666 -79.3346,193.668 0,51.3336 12.8356,98.5038 38.5069,141.67 25.8307,43.1663 61.6623,77.1643 107.832,101.835 46.0009,24.6614 97.5029,37.0009 154.497,37.0009 52.8395,0 100.169,-10.5059 142.166,-31.5 42.0059,-21.0029 76.3316,-50.8375 103.004,-89.5038z"
     id="path149" /></glyph>
   <glyph
   unicode="n"
   horiz-adv-x="600"
   id="glyph155"><path
     d="M67.0039 530.999l132.998 0 0 -54.6643c30.1624,25.3346 57.6673,42.8297 82.1692,52.8307 24.4931,9.83267 49.6594,14.8376 75.3306,14.8376 52.6623,0 97.494,-18.3366 134.167,-55.0009 30.8356,-31.3317 46.3287,-77.5009 46.3287,-138.499l0 -350.504 -131.997 0 0 232.166c0,63.3366 -2.83464,105.334 -8.50393,126 -5.66043,20.8346 -15.6614,36.6643 -29.6663,47.498 -14.1644,10.8337 -31.6594,16.3346 -52.3346,16.3346 -27,0 -50.1643,-8.99999 -69.493,-27 -19.3376,-18 -32.6693,-42.998 -40.1722,-74.6663 -3.82677,-16.6624 -5.82873,-52.5029 -5.82873,-107.663l0 -212.669 -132.998 0 0 530.999z"
     id="path153" /></glyph>
   <glyph
   unicode="'"
   horiz-adv-x="220"
   id="glyph159"><path
     d="M148.004 490.003l-76.0039 0 -27 245.994 130.004 0 -27 -245.994z"
     id="path157" /></glyph>
   <glyph
   unicode="h"
   horiz-adv-x="600"
   id="glyph163"><path
     d="M67.996 735.997l133.007 0 0 -259.334c25.999,22.5 51.998,39.3395 78.3336,50.5009 26.1673,11.1703 52.8307,16.8396 79.6623,16.8396 52.5029,0 96.8385,-18.1683 132.838,-54.6732 30.8267,-31.5 46.1604,-77.8287 46.1604,-138.827l0 -350.504 -130.996 0 0 232.503c0,61.3346 -2.83464,102.995 -8.67224,124.662 -5.82873,21.8356 -15.8297,38.0019 -29.9941,48.8356 -14.0049,10.6653 -31.5,15.998 -52.1663,15.998 -26.8317,0 -50.0049,-8.99999 -69.3336,-26.8317 -19.1693,-17.8317 -32.501,-42.1653 -40.0039,-73.0009 -3.83563,-15.998 -5.82873,-52.3346 -5.82873,-109.169l0 -212.997 -133.007 0 0 735.997z"
     id="path161" /></glyph>
   <glyph
   unicode="d"
   horiz-adv-x="660"
   id="glyph167"><path
     d="M460.001 735.997l132.998 0 0 -735.997 -132.998 0 0 56.498c-25.999,-24.6614 -52.1663,-42.3336 -78.3336,-53.1673 -26.1673,-10.8337 -54.6643,-16.3346 -85.1633,-16.3346 -68.8375,0 -128.17,26.5039 -178.334,79.6712 -50.1732,52.999 -75.1712,119.002 -75.1712,197.831 0,81.8326 24.3336,148.836 72.8326,201.171 48.499,52.1663 107.336,78.3336 176.669,78.3336 31.996,0 61.8306,-6.0059 89.8316,-17.8405 28.001,-11.9941 53.8316,-29.9941 77.6692,-53.8316l0 263.666zm-140.164 -313.999c-41.3326,0 -75.6672,-14.501 -102.836,-43.6624 -27.3366,-29.0019 -41.0049,-66.3395 -41.0049,-111.836 0,-45.8326 13.8366,-83.4979 41.6693,-113.164 27.8326,-29.5069 61.999,-44.3356 102.667,-44.3356 41.8376,0 76.6682,14.501 104.164,43.6624 27.6732,29.0019 41.5009,67.1722 41.5009,114.334 0,46.1692 -13.8277,83.5068 -41.5009,112.172 -27.496,28.497 -62.495,42.8297 -104.66,42.8297z"
     id="path165" /></glyph>
   <glyph
   unicode=" "
   horiz-adv-x="279"
   id="glyph169" />
   <glyph
   unicode="B"
   horiz-adv-x="580"
   id="glyph173"><path
     d="M80.9999 0l0 717.997 113.333 0c65.8346,0 113.837,-4.16338 144.336,-12.6673 43.1663,-11.498 77.5009,-32.6604 102.995,-63.496 25.5029,-31.0039 38.3385,-67.4999 38.3385,-109.497 0,-27.3366 -5.83759,-52.1663 -17.3356,-74.5068 -11.498,-22.3317 -30.3307,-43.3346 -56.3297,-62.8316 43.4941,-20.498 75.3306,-46.0009 95.492,-76.8277 20.1703,-30.6673 30.1712,-67.0039 30.1712,-109.001 0,-40.3405 -10.497,-77.0048 -31.3317,-110.17 -21.0029,-33.1653 -48.0029,-58.0039 -80.9999,-74.3297 -33.0059,-16.5029 -78.5019,-24.6703 -136.665,-24.6703l-202.004 0zm136.001 588.002l0 -151.999 30.499 0c33.998,0 59.3326,6.99802 75.8356,21.1624 16.4941,14.0049 24.6614,33.1653 24.6614,57.3307 0,22.5 -7.8307,40.3405 -23.501,53.6722 -15.6614,13.1634 -39.499,19.8336 -71.495,19.8336l-36 0zm0 -274.004l0 -183.995 34.6624 0c57.5078,0 96.3336,7.16633 116.336,21.499 20.0019,14.3327 30.0029,35.1673 30.0029,62.495 0,30.8356 -11.6663,55.3375 -35.1673,73.1692 -23.501,17.8317 -62.5039,26.8317 -117,26.8317l-28.8336 0z"
     id="path171" /></glyph>
   <glyph
   unicode="a"
   horiz-adv-x="660"
   id="glyph177"><path
     d="M460.001 530.999l132.998 0 0 -530.999 -132.998 0 0 56.498c-25.999,-24.6614 -52.1663,-42.3336 -78.3336,-53.1673 -26.1673,-10.8337 -54.6643,-16.3346 -85.1633,-16.3346 -68.8375,0 -128.17,26.5039 -178.334,79.6712 -50.1732,52.999 -75.1712,119.002 -75.1712,197.831 0,81.8326 24.3336,148.836 72.8326,201.171 48.499,52.1663 107.336,78.3336 176.669,78.3336 31.996,0 61.8306,-6.0059 89.8316,-17.8405 28.001,-11.8258 53.8316,-29.8258 77.6692,-53.495l0 58.3316zm-140.164 -109.001c-41.3326,0 -75.6672,-14.501 -102.836,-43.6624 -27.3366,-29.0019 -41.0049,-66.3395 -41.0049,-111.836 0,-45.8326 13.8366,-83.4979 41.6693,-113.164 27.8326,-29.5069 61.999,-44.3356 102.667,-44.3356 41.8376,0 76.6682,14.501 104.164,43.6624 27.6732,29.0019 41.5009,67.1722 41.5009,114.334 0,46.1692 -13.8277,83.5068 -41.5009,112.172 -27.496,28.497 -62.495,42.8297 -104.66,42.8297z"
     id="path175" /></glyph>
   <glyph
   unicode="o"
   horiz-adv-x="640"
   id="glyph181"><path
     d="M316.833 544.003c50.1643,0 97.3345,-12.499 141.502,-37.5059 44.3356,-24.998 78.6613,-58.8277 103.5,-101.666 24.8297,-42.998 37.1693,-89.1672 37.1693,-138.835 0,-49.996 -12.5079,-96.6613 -37.3376,-140.164 -24.998,-43.4941 -58.996,-77.5009 -102.003,-101.994 -43.1663,-24.5019 -90.496,-36.8415 -142.335,-36.8415 -76.3316,0 -141.493,27 -195.333,80.9999 -53.9999,54.1683 -80.9999,119.835 -80.9999,197.008 0,82.8336 30.5078,151.831 91.5058,207 53.495,47.994 114.83,71.9999 184.332,71.9999zm2.00197 -125.008c-41.5009,0 -76.0039,-14.3327 -103.5,-42.998 -27.5049,-28.8336 -41.3326,-65.498 -41.3326,-110.33 0,-46.0009 13.6683,-83.3385 40.8277,-111.836 27.1683,-28.497 61.6712,-42.8297 103.5,-42.8297 41.6693,0 76.3405,14.501 104.173,43.3346 27.6643,28.8336 41.4921,65.994 41.4921,111.331 0,45.496 -13.6594,82.3287 -40.8277,110.835 -27.1683,28.3287 -61.999,42.4931 -104.333,42.4931z"
     id="path179" /></glyph>
  </font>
</defs>
</svg>
