<?xml version="1.0" encoding="UTF-8" standalone="no"?>
<!-- Creator: CorelDRAW X7 -->

<svg
   xml:space="preserve"
   width="1260px"
   height="411px"
   version="1.1"
   style="shape-rendering:geometricPrecision; text-rendering:geometricPrecision; image-rendering:optimizeQuality; fill-rule:evenodd; clip-rule:evenodd"
   viewBox="0 0 1260 411"
   id="svg10353"
   sodipodi:docname="ruestung_orizashi_06_fr.svg"
   inkscape:version="1.4.2 (ebf0e940d0, 2025-05-08)"
   xmlns:inkscape="http://www.inkscape.org/namespaces/inkscape"
   xmlns:sodipodi="http://sodipodi.sourceforge.net/DTD/sodipodi-0.dtd"
   xmlns:xlink="http://www.w3.org/1999/xlink"
   xmlns="http://www.w3.org/2000/svg"
   xmlns:svg="http://www.w3.org/2000/svg"><sodipodi:namedview
   id="namedview10355"
   pagecolor="#ffffff"
   bordercolor="#000000"
   borderopacity="0.25"
   inkscape:showpageshadow="2"
   inkscape:pageopacity="0.0"
   inkscape:pagecheckerboard="0"
   inkscape:deskcolor="#d1d1d1"
   showgrid="false"
   inkscape:zoom="0.7738095"
   inkscape:cx="369.60001"
   inkscape:cy="75.600002"
   inkscape:window-width="1854"
   inkscape:window-height="1011"
   inkscape:window-x="0"
   inkscape:window-y="0"
   inkscape:window-maximized="1"
   inkscape:current-layer="Ebene_x0020_1" />
 <defs
   id="defs10327">
  <font
   id="FontID0"
   horiz-adv-x="722"
   font-variant="normal"
   style="fill-rule:nonzero"
   font-style="normal"
   font-weight="400,700">
	<font-face
   font-family="Arial"
   id="font-face10201">
	</font-face>
   <missing-glyph
   id="missing-glyph10205"><path
     d="M0 0z"
     id="path10203" /></missing-glyph>
   <glyph
   unicode="€"
   horiz-adv-x="556"
   id="glyph10209"><path
     d="M386 647c-54.6693,0 -100.496,-13.1654 -137.496,-39.4961 -22.1732,-15.5039 -42.1732,-37.6693 -60,-66.1732 -18.1732,-29.6614 -29,-57.6614 -32.1732,-84.3307l332.669 0 -13.1654 -66 -327.331 0c-0.338583,-6.83465 -0.503937,-13.3307 -0.503937,-19.3307 0,-25 0.165354,-39.8346 0.503937,-44.6693l314.496 0 -13.6693 -66 -290.496 0c13.4961,-74.3307 46.3307,-127.165 98.3307,-158.331 37.5039,-22.5039 77.8346,-33.6693 121.504,-33.6693 60.8346,0 108.165,16 142.331,48l0 -100.669c-40.6693,-18.8346 -85.4961,-28.3307 -134.669,-28.3307 -147.165,0 -246.496,61.1654 -298.165,183.331 -10.4961,24.6693 -19.4961,54.5039 -26.8346,89.6693l-74.3307 0 13.5039 66 51 0c-1,13.5039 -1.50394,28.3307 -1.50394,44.1654 0,6.50394 0.165354,13 0.503937,19.8346l-63.5039 0 13.5039 66 56.3307 0c20.1654,106 72.8346,182 157.669,228.165 52.3307,28.5039 110.165,42.8346 173.331,42.8346 60.4961,0 111.331,-13.1654 152.669,-39.4961l-19.5039 -90.5039c-39.6693,32.6693 -84.6693,49 -135,49z"
     id="path10207" /></glyph>
   <glyph
   unicode="0"
   horiz-adv-x="556"
   id="glyph10213"><path
     d="M42 353.331c0,84.5039 8.66929,152.835 26,204.504 17.5039,51.8346 43.3307,91.6693 77.6693,119.496 34.1654,27.8346 77.3307,41.6693 129.331,41.6693 38.3307,0 72,-7.66929 101.165,-23.1654 29,-15.5039 53,-37.8346 71.6693,-67 18.6693,-29 33.3307,-64.5039 44,-106.331 10.8346,-41.8346 16.1654,-98.3386 16.1654,-169.173 0,-84 -8.66929,-152 -25.8346,-203.661 -17.1654,-51.8346 -43,-91.6693 -77.3307,-119.669 -34.1654,-28 -77.5039,-42 -129.835,-42 -68.8346,0 -123,24.5039 -162.331,73.6693 -47.1654,60 -70.6693,157.165 -70.6693,291.661zm90 -0.330709c0,-117.835 13.6693,-196.165 41.1654,-234.835 27.5039,-38.8346 61.5039,-58.1654 101.835,-58.1654 40.3307,0 74.3307,19.5039 101.835,58.3307 27.4961,39 41.1654,117.173 41.1654,234.669 0,117.835 -13.6693,196.165 -41.1654,234.835 -27.3307,38.8346 -61.6693,58.1654 -102.835,58.1654 -40.3307,0 -72.6693,-17.1654 -96.8346,-51.3307 -30.1654,-43.5039 -45.1654,-124.165 -45.1654,-241.669z"
     id="path10211" /></glyph>
   <glyph
   unicode="t"
   horiz-adv-x="333"
   id="glyph10217"><path
     d="M309.001 519.001l0 -108.998 -93.9982 0 0 -210.172c0,-42.6615 0.832679,-67.5001 2.66339,-74.4982 1.83662,-6.99805 5.83466,-12.8327 12.3366,-17.4981 6.33072,-4.50001 13.9961,-6.83269 23.1615,-6.83269 12.8386,0 31.1694,4.32875 55.3348,13.1634l11.504 -106.666c-31.8367,-13.6654 -67.8367,-20.4981 -108.171,-20.4981 -24.6674,0 -46.8308,4.16339 -66.6615,12.4961 -19.8367,8.33269 -34.3347,19.1693 -43.5001,32.3327 -9.33663,13.3347 -15.6674,31.1694 -19.3347,53.8348 -2.83465,16.004 -4.33465,48.3367 -4.33465,97.1695l0 227.168 -63.0001 0 0 108.998 63.0001 0 0 102.998 137.002 81.0002 0 -183.998 93.9982 0z"
     id="path10215" /></glyph>
   <glyph
   unicode="c"
   horiz-adv-x="556"
   id="glyph10221"><path
     d="M523.997 365.003l-134.994 -24c-4.50001,26.8288 -14.8347,46.9962 -31.004,60.6615 -16.1634,13.5 -36.9981,20.3386 -62.6635,20.3386 -34.1694,0 -61.5001,-11.8347 -81.8328,-35.504 -20.3386,-23.6634 -30.502,-63.1655 -30.502,-118.666 0,-61.6655 10.3347,-105.166 30.9981,-130.666 20.6693,-25.5001 48.3367,-38.1674 83.0021,-38.1674 26.002,0 47.3328,7.50001 63.8328,22.3347 16.6654,14.8347 28.3347,40.3347 35.1674,76.6655l135 -23.002c-14.002,-61.9962 -40.8367,-108.833 -80.4982,-140.498 -39.6674,-31.6654 -92.8348,-47.4981 -159.668,-47.4981 -75.6675,0 -136.17,24 -181.17,71.8289 -45.1654,48.0001 -67.6655,114.337 -67.6655,199.17 0,85.8309 22.6654,152.498 67.8308,200.333 45.1713,47.8347 106.335,71.6635 183.502,71.6635 63.0001,0 113.168,-13.6654 150.502,-40.8308 37.1635,-27.1654 63.8328,-68.4982 80.1616,-124.164z"
     id="path10219" /></glyph>
   <glyph
   unicode="A"
   horiz-adv-x="722"
   id="glyph10225"><path
     d="M717.999 0l-156.166 0 -61.8308 162.998 -287.168 0 -59.5041 -162.998 -153.331 0 278.003 715.997 153.166 0 286.831 -715.997zm-264.999 284.003l-99.5022 264.999 -96.6675 -264.999 196.17 0z"
     id="path10223" /></glyph>
   <glyph
   unicode="-"
   horiz-adv-x="333"
   id="glyph10229"><path
     d="M56.0021 191.002l0 136.996 270.001 0 0 -136.996 -270.001 0z"
     id="path10227" /></glyph>
   <glyph
   unicode="O"
   horiz-adv-x="777"
   id="glyph10233"><path
     d="M42.9981 353.664c0,73.0041 11.002,134.339 32.8347,184.004 16.1693,36.4961 38.4981,69.3308 66.6675,98.3329 28.1634,28.9961 59.0021,50.4981 92.4982,64.6655 44.6694,18.8327 96.1655,28.3347 154.5,28.3347 105.668,0 189.998,-32.8347 253.5,-98.3329 63.3367,-65.6694 95.0022,-156.833 95.0022,-273.668 0,-115.837 -31.5001,-206.498 -94.3348,-271.831 -62.8348,-65.5041 -147,-98.1675 -252.166,-98.1675 -106.5,0 -191.333,32.4981 -254.168,97.6655 -62.8348,65.0021 -94.3348,154.666 -94.3348,268.997zm149.002 4.83662c0,-81.1655 18.8327,-142.666 56.3328,-184.666 37.5001,-41.8347 85.1695,-62.8348 142.831,-62.8348 57.8387,0 105.171,20.8347 142.335,62.3328 36.9981,41.6694 55.5001,104.002 55.5001,187.17 0,82.1635 -18,143.498 -54.1655,183.833 -36.0001,40.5001 -83.8348,60.6615 -143.67,60.6615 -59.6635,0 -107.829,-20.4981 -144.331,-61.3289 -36.502,-41.002 -54.8328,-102.668 -54.8328,-185.168z"
     id="path10231" /></glyph>
   <glyph
   unicode="n"
   horiz-adv-x="610"
   id="glyph10237"><path
     d="M543.996 0l-136.997 0 0 264.498c0,55.9965 -3.00002,92.174 -8.83472,108.497 -6.00005,16.5001 -15.4962,29.1735 -28.8309,38.3389 -13.3348,9.16543 -29.3388,13.6655 -48.0004,13.6655 -24.0002,0 -45.4964,-6.49611 -64.5005,-19.5002 -19.1694,-13.004 -32.1617,-30.3309 -39.1657,-51.6618 -7.16935,-21.508 -10.6654,-61.1698 -10.6654,-119.174l0 -234.663 -136.997 0 0 519.004 126.993 0 0 -76.1699c45.5082,58.1697 102.674,87.166 171.84,87.166 30.3309,0 58.1579,-5.50398 83.3274,-16.3348 25.3348,-10.9961 44.3389,-24.827 57.1658,-41.6696 13.004,-16.9962 22.0041,-36.1656 27.0002,-57.6619 5.17327,-21.4962 7.66541,-52.1697 7.66541,-92.1621l0 -322.172z"
     id="path10235" /></glyph>
   <glyph
   unicode="*"
   horiz-adv-x="389"
   id="glyph10241"><path
     d="M31 585l22.3307 69c51.6693,-18.1654 89,-33.8346 112.504,-47.1654 -6.16535,58.6693 -9.50394,99.1654 -9.83465,121.165l71 0c-1,-32.1654 -4.66929,-72.3307 -11.3307,-120.669 33.4961,16.8346 71.8346,32.5039 115,46.6693l22.3307 -69c-41.1654,-13.6693 -81.4961,-22.8346 -121.165,-27.3307 19.8346,-17.1654 47.6693,-48 83.6693,-92.1654l-58.3386 -41.5039c-18.8346,25.6693 -41.1654,60.6693 -66.8346,104.835 -24.1654,-45.8346 -45.3307,-80.8346 -63.4961,-104.835l-57.3307 41.5039c37.4961,46.4961 64.4961,77.1654 80.6614,92.1654 -41.8346,8.16535 -81.4961,17.3307 -119.165,27.3307z"
     id="path10239" /></glyph>
   <glyph
   unicode="h"
   horiz-adv-x="610"
   id="glyph10245"><path
     d="M207 715.997l0 -265.329c44.4981,52.8308 97.8309,79.3289 159.668,79.3289 31.8308,0 60.4962,-5.82875 85.9962,-17.4981 25.5001,-11.8347 44.6694,-26.6634 57.6674,-45.0001 13.004,-18.1654 21.8327,-38.3328 26.504,-60.4962 4.83072,-22.1693 7.1634,-56.504 7.1634,-103.004l0 -303.999 -136.996 0 0 273.668c0,54.3308 -2.6693,88.8309 -7.83663,103.5 -5.33269,14.6634 -14.6634,26.3327 -27.9981,34.8308 -13.3347,8.66931 -30.0001,13.004 -50.1674,13.004 -23.002,0 -43.5001,-5.50395 -61.6655,-16.6713 -18.1713,-10.9961 -31.3347,-27.6674 -39.6674,-49.9962 -8.50395,-22.1693 -12.6673,-55.1694 -12.6673,-98.6695l0 -259.666 -137.002 0 0 715.997 137.002 0z"
     id="path10243" /></glyph>
   <glyph
   unicode="v"
   horiz-adv-x="556"
   id="glyph10249"><path
     d="M214.667 0l-209.163 519.004 144.001 0 97.6661 -264.841 28.3231 -88.5007c7.50006,22.5002 12.3426,37.3349 14.1733,44.5043 4.66539,14.6694 9.49614,29.3388 14.8348,43.9964l99.0008 264.841 141.001 0 -206.175 -519.004 -123.662 0z"
     id="path10247" /></glyph>
   <glyph
   unicode="e"
   horiz-adv-x="556"
   id="glyph10253"><path
     d="M372.001 164.002l136.996 -23.002c-17.4981,-50.1674 -45.3308,-88.3348 -83.1616,-114.668 -38.002,-26.1674 -85.5002,-39.3308 -142.335,-39.3308 -90.1655,0 -156.998,29.4981 -200.168,88.5002 -34.1635,47.3328 -51.3308,106.996 -51.3308,179.162 0,86.0021 22.5,153.502 67.3289,202.17 44.8347,48.8328 101.669,73.1635 170.333,73.1635 77.0021,0 137.835,-25.4941 182.504,-76.4942 44.4981,-51.0001 65.8289,-129.172 63.8328,-234.502l-342.999 0c0.998033,-40.6654 12,-72.3309 33.1654,-95.0022 21,-22.6654 47.3328,-33.9981 78.6675,-33.9981 21.4961,0 39.4961,5.83466 54.0001,17.4981 14.6634,11.6693 25.6654,30.502 33.1654,56.504zm8.00198 138.998c-1.00394,39.8328 -11.1673,70.1635 -30.6674,90.8329 -19.5,20.8347 -43.1694,31.1694 -71.1675,31.1694 -29.8347,0 -54.5021,-11.002 -74.0021,-32.8347 -19.5,-21.8327 -29.002,-51.6674 -28.6654,-89.1675l204.502 0z"
     id="path10251" /></glyph>
   <glyph
   unicode="b"
   horiz-adv-x="610"
   id="glyph10257"><path
     d="M66.0005 0l0 716.002 136.997 0 0 -258.333c42.331,48.1657 92.3393,72.3313 150.332,72.3313 63.1659,0 115.336,-22.8309 156.674,-68.6698 41.3271,-45.8271 61.9966,-111.662 61.9966,-197.494 0,-88.6661 -21.0002,-157.005 -63.1659,-205.006 -42.1657,-47.835 -93.4968,-71.8352 -153.663,-71.8352 -29.6695,0 -58.843,7.66541 -87.6739,22.8427 -28.8309,15.3308 -53.6697,37.3231 -74.4927,66.3312l0 -76.1699 -127.005 0zm135.001 269.494c0,-53.8233 8.504,-93.8275 25.5002,-119.493 23.8348,-36.6735 55.3351,-55.0044 94.8315,-55.0044 30.3309,0 56.1619,13.004 77.6699,39.0003 21.3309,26.0081 31.9963,67.0045 31.9963,122.836 0,59.5044 -10.8308,102.332 -32.327,128.67 -21.508,26.327 -49.0043,39.4964 -82.6778,39.4964 -33.0003,0 -60.3312,-12.8269 -82.1581,-38.5042 -21.8388,-25.6656 -32.8349,-64.6659 -32.8349,-117.001z"
     id="path10255" /></glyph>
   <glyph
   unicode="s"
   horiz-adv-x="556"
   id="glyph10261"><path
     d="M23.002 146.002l138 21c5.82875,-26.504 17.6634,-46.6714 35.6635,-60.3367 17.8347,-13.8307 42.9981,-20.6634 75.1655,-20.6634 35.504,0 62.1674,6.49608 80.1675,19.5 12,9.16537 18,21.4961 18,36.8327 0,10.3347 -3.33072,18.9981 -9.8327,25.8308 -6.83269,6.50198 -22.1634,12.6673 -45.8328,18.1654 -110.835,24.502 -180.998,46.8367 -210.668,67.0041 -41.1674,28.1634 -61.6655,67.1635 -61.6655,117 0,45.1654 17.8347,82.9962 53.3328,113.664 35.4981,30.6674 90.5021,45.9981 165,45.9981 71.0021,0 123.833,-11.6634 158.333,-34.8308 34.5001,-23.3327 58.3348,-57.6674 71.3328,-103.164l-129 -24c-5.49804,20.3327 -16.1634,36.0001 -31.6654,46.8308 -15.502,10.8307 -37.6654,16.1693 -66.5021,16.1693 -36.3308,0 -62.3328,-5.00198 -78.1655,-15.1713 -10.5,-7.1634 -15.6674,-16.5 -15.6674,-27.8327 0,-9.8327 4.50001,-18.1654 13.6654,-24.9981 12.502,-9.16537 55.3348,-21.9981 128.67,-38.6694 73.3348,-16.6654 124.5,-36.9981 153.502,-61.1635 28.8308,-24.3367 43.1635,-58.5001 43.1635,-102.166 0,-47.504 -19.8307,-88.5002 -59.6635,-122.67 -39.6674,-34.1635 -98.5041,-51.3308 -176.504,-51.3308 -70.6655,0 -126.662,14.3327 -168,42.8328 -41.1615,28.5001 -68.1616,67.1635 -80.8289,116.168z"
     id="path10259" /></glyph>
   <glyph
   unicode=","
   horiz-adv-x="277"
   id="glyph10265"><path
     d="M89 0l0 100 100 0 0 -100c0,-36.8346 -6.49606,-66.6693 -19.6693,-89.3307 -13,-22.6693 -33.8268,-40.3386 -62.3307,-52.6693l-24 38c18.6693,8.16535 32.3307,20.1654 41,35.8346 8.83465,15.8346 13.8346,38.4961 14.8346,68.1654l-49.8346 0z"
     id="path10263" /></glyph>
   <glyph
   unicode="p"
   horiz-adv-x="556"
   id="glyph10269"><path
     d="M65.9997 -199.003l0 718.001 79.9957 0 0 -68.1611c18.8385,26.3267 40.1691,46.1573 64.0037,59.3265 23.6692,13.1692 52.4998,19.8424 86.3382,19.8424 44.3266,0 83.3264,-11.3385 117.165,-34.1692 33.8266,-22.6653 59.3265,-54.8384 76.6651,-96.165 17.1613,-41.5038 25.8306,-86.8343 25.8306,-136.334 0,-52.8423 -9.49603,-100.5 -28.4999,-143.007 -19.0039,-42.3305 -46.6652,-74.8344 -82.9957,-97.4996 -36.1652,-22.4999 -74.3383,-33.8266 -114.33,-33.8266 -29.3385,0 -55.6769,6.16533 -78.8383,18.496 -23.3385,12.3307 -42.3305,27.8385 -57.3305,46.6652l0 -253.168 -88.0036 0zm79.9957 455.337c0,-66.4958 13.4999,-115.665 40.3345,-147.495 26.9999,-31.8424 59.6691,-47.8345 98.0075,-47.8345 38.9998,0 72.3304,16.4999 99.9917,49.4998 27.8385,32.9999 41.6691,83.9997 41.6691,153.165 0,65.9997 -13.4999,115.334 -40.6652,148.169 -27.1652,32.8345 -59.5037,49.1573 -97.1689,49.1573 -37.3345,0 -70.3344,-17.4921 -98.9996,-52.3226 -28.8306,-35.0077 -43.1691,-85.6768 -43.1691,-152.338z"
     id="path10267" /></glyph>
   <glyph
   unicode="m"
   horiz-adv-x="889"
   id="glyph10273"><path
     d="M62.0021 519.001l126 0 0 -70.8368c45.1654,54.5021 99.0002,81.8328 161.498,81.8328 33.1654,0 62.0021,-6.83269 86.3328,-20.4981 24.502,-13.6654 44.4981,-34.3347 60.0001,-61.9962 22.8308,27.6615 47.4981,48.3308 73.8309,61.9962 26.3327,13.6654 54.5021,20.4981 84.5021,20.4981 38.002,0 70.1694,-7.66537 96.6675,-23.1615 26.3327,-15.502 45.9981,-38.1674 59.0021,-68.1675 9.49608,-22.004 14.1614,-57.8328 14.1614,-107.333l0 -331.335 -136.996 0 0 296.168c0,51.4962 -4.66536,84.6675 -14.1674,99.4963 -12.6673,19.5 -32.3327,29.3386 -58.6655,29.3386 -19.1693,0 -37.3347,-5.83466 -54.3367,-17.504 -16.8307,-11.8347 -29.1674,-28.9961 -36.6674,-51.4962 -7.50001,-22.6713 -11.1673,-58.3348 -11.1673,-107.168l0 -248.835 -136.996 0 0 284.003c0,50.3328 -2.49804,82.9962 -7.33466,97.5002 -4.83072,14.6634 -12.3307,25.6654 -22.6654,32.8288 -10.1693,7.16931 -24.1654,10.6713 -41.6694,10.6713 -21.1654,0 -40.1635,-5.6693 -57.0001,-17.002 -16.9961,-11.4981 -28.9961,-27.8327 -36.3308,-49.3347 -7.33466,-21.502 -11.002,-57.1655 -11.002,-106.831l0 -251.835 -136.996 0 0 519.001z"
     id="path10271" /></glyph>
   <glyph
   unicode="d"
   horiz-adv-x="556"
   id="glyph10277"><path
     d="M400.994 0l0 65.8344c-32.8227,-51.1652 -81.165,-76.8304 -144.992,-76.8304 -41.3384,0 -79.3343,11.3267 -113.834,34.1573 -34.6652,22.6771 -61.4998,54.5077 -80.669,95.1729 -19.0039,40.8305 -28.4999,87.6611 -28.4999,140.669 0,51.6612 8.66926,98.4917 25.8306,140.669 17.3385,41.9998 43.1691,74.3265 77.669,96.661 34.3345,22.4999 73.0036,33.6731 115.5,33.6731 31.3345,0 59.173,-6.6732 83.5036,-19.8424 24.3306,-13.1692 44.1612,-30.4959 59.4919,-51.6612l0 257.503 88.0036 0 0 -716.005 -82.0036 0zm-277.995 258.838c0,-66.3423 13.996,-115.842 42.1652,-148.677 28.0038,-32.8227 61.1691,-49.1573 99.3303,-49.1573 38.5038,0 71.1729,15.6614 98.1728,46.9959 26.8345,31.3345 40.3345,79.169 40.3345,143.503 0,70.6651 -13.6653,122.669 -41.1731,155.834 -27.3306,33.1652 -61.1572,49.6652 -101.326,49.6652 -39.1652,0 -71.8344,-15.8385 -98.1728,-47.6691 -26.1613,-31.8306 -39.3306,-82.0036 -39.3306,-150.495z"
     id="path10275" /></glyph>
   <glyph
   unicode="u"
   horiz-adv-x="610"
   id="glyph10281"><path
     d="M414.999 0l0 77.6694c-18.9981,-27.6674 -43.8308,-49.6714 -74.6635,-66.1714 -30.8327,-16.3288 -63.3367,-24.4961 -97.5002,-24.4961 -35.002,0 -66.3367,7.66537 -94.0041,22.9961 -27.8327,15.3366 -47.8288,37.004 -60.1655,64.6714 -12.4961,27.8327 -18.6674,66.1655 -18.6674,115.164l0 329.168 137.002 0 0 -239.002c0,-73.1635 2.49804,-117.833 7.66537,-134.333 5.00198,-16.5 14.1674,-29.6634 27.6674,-39.1654 13.3347,-9.66734 30.3308,-14.4981 51.0001,-14.4981 23.4981,0 44.4981,6.49608 63.1655,19.3288 18.6674,12.8386 31.3347,28.8367 38.1674,48.0001 6.83269,19.1693 10.3347,65.8348 10.3347,140.333l0 219.337 136.996 0 0 -519.001 -126.998 0z"
     id="path10279" /></glyph>
   <glyph
   unicode=" "
   horiz-adv-x="277"
   id="glyph10283" />
   <glyph
   unicode="é"
   horiz-adv-x="556"
   id="glyph10287"><path
     d="M372.003 163.997l136.997 -22.9962c-17.5041,-50.1736 -45.3311,-88.3353 -83.1621,-114.662 -38.0082,-26.1734 -85.5007,-39.3428 -142.336,-39.3428 -90.1661,0 -157.005,29.5042 -200.163,88.5007 -34.1696,47.339 -51.3429,107.009 -51.3429,179.175 0,85.9967 22.5002,153.497 67.3352,202.159 44.835,48.839 101.67,73.1699 170.34,73.1699 76.9967,0 137.824,-25.5002 182.494,-76.5006 44.5043,-51.0004 65.8352,-129.166 63.8391,-234.498l-343.007 0c1.00394,-40.6657 12.0001,-72.3313 33.1656,-94.9968 21.0002,-22.6773 47.339,-34.0042 78.6738,-34.0042 21.4962,0 39.4964,5.83469 54.0004,17.5041 14.6576,11.6576 25.6656,30.4963 33.1656,56.4926zm7.99613 139.005c-1.00394,39.8271 -11.1615,70.1698 -30.6617,90.8275 -19.5002,20.8348 -43.1696,31.1695 -71.1738,31.1695 -29.8349,0 -54.4965,-10.9961 -73.9966,-32.8349 -19.5002,-21.8269 -28.9963,-51.6618 -28.6656,-89.1621l204.498 0zm-177.001 282.994l67.9966 146.009 153.001 0 -135.001 -146.009 -85.9967 0z"
     id="path10285" /></glyph>
   <glyph
   unicode="a"
   horiz-adv-x="556"
   id="glyph10291"><path
     d="M174 359.003l-123.998 21.9981c13.9961,50.6635 38.1674,88.1636 72.3309,112.5 34.1694,24.3308 84.9982,36.4961 152.333,36.4961 61.1694,0 106.837,-7.1634 136.837,-21.6615 29.8288,-14.504 51.0001,-32.8347 63.1655,-55.1694 12.1654,-22.3347 18.3307,-63.1655 18.3307,-122.835l-1.99607 -159.998c0,-45.5021 2.16142,-79.1635 6.49608,-100.831 4.33465,-21.6674 12.502,-44.8347 24.502,-69.5021l-135.998 0c-3.50198,9.00002 -8.00198,22.3347 -13.1693,39.9981 -2.16733,8.16734 -3.83268,13.5 -4.83072,16.004 -23.3386,-23.002 -48.3367,-40.1694 -75.0001,-51.6674 -26.6693,-11.504 -55.004,-17.3327 -85.1695,-17.3327 -53.1674,0 -95.1675,14.4981 -125.835,43.5001 -30.6674,28.8308 -45.9981,65.4982 -45.9981,109.831 0,29.1674 6.99805,55.3348 21,78.3309 14.002,22.8367 33.502,40.5001 58.8308,52.6714 25.1693,12.1654 61.5001,22.8308 109.004,31.9961 63.9982,12 108.496,23.3327 133.164,33.6674l0 13.8366c0,26.6634 -6.49608,45.6674 -19.5,57.1655 -13.1634,11.3327 -37.8308,17.002 -73.9962,17.002 -24.502,0 -43.5001,-4.83662 -57.1714,-14.6693 -13.8307,-9.66734 -24.8327,-26.8347 -33.3308,-51.3308zm183.998 -111c-17.4981,-5.83466 -45.3308,-12.8386 -83.4982,-21 -38.002,-8.16734 -63.0001,-16.1693 -74.6694,-23.8347 -17.8288,-12.8327 -26.8288,-28.8367 -26.8288,-48.3367 0,-19.3288 7.1634,-35.8288 21.4961,-49.8308 14.3327,-14.002 32.504,-21 54.6674,-21 24.6674,0 48.3367,8.16734 70.8368,24.3308 16.5,12.502 27.4961,27.502 32.6635,45.5021 3.50198,11.6693 5.33269,33.9981 5.33269,66.8328l0 27.3367z"
     id="path10289" /></glyph>
   <glyph
   unicode="r"
   horiz-adv-x="389"
   id="glyph10295"><path
     d="M203.002 0l-137.002 0 0 519.001 126.998 0 0 -73.6655c21.8327,34.8308 41.504,57.6674 59.0021,68.4982 17.4981,10.8307 37.3347,16.1634 59.4981,16.1634 31.3347,0 61.5001,-8.6634 90.5021,-25.8308l-42.5021 -119.664c-23.1674,15 -44.6635,22.5 -64.5001,22.5 -19.3347,0 -35.6635,-5.33859 -48.9981,-15.8386 -13.3347,-10.6654 -23.8347,-29.6634 -31.5001,-57.3308 -7.66537,-27.6674 -11.4981,-85.6655 -11.4981,-173.835l0 -159.998z"
     id="path10293" /></glyph>
   <glyph
   unicode="o"
   horiz-adv-x="610"
   id="glyph10299"><path
     d="M39.9981 265.831c0,45.6674 11.1673,89.8348 33.6674,132.502 22.5,42.8328 54.3367,75.3309 95.4982,97.8309 41.1674,22.5 87.0002,33.8327 137.835,33.8327 78.5021,0 142.666,-25.4941 192.833,-76.4942 50.1674,-51.1714 75.1655,-115.5 75.1655,-193.5 0,-78.6675 -25.3288,-143.835 -75.8328,-195.502 -50.6635,-51.6674 -114.331,-77.4982 -191.162,-77.4982 -47.504,0 -92.8348,10.8307 -136.004,32.3327 -42.9981,21.4961 -75.8328,52.9962 -98.3329,94.6655 -22.5,41.4981 -33.6674,92.1675 -33.6674,151.831zm141 -7.32875c0,-51.5021 12.1654,-91.0041 36.502,-118.335 24.502,-27.502 54.5021,-41.1674 90.3309,-41.1674 35.6694,0 65.6694,13.6654 89.8348,41.1674 24.1654,27.3308 36.3367,67.1635 36.3367,119.333 0,50.8347 -12.1713,90.0002 -36.3367,117.331 -24.1654,27.502 -54.1655,41.1674 -89.8348,41.1674 -35.8288,0 -65.8289,-13.6654 -90.3309,-41.1674 -24.3367,-27.3308 -36.502,-66.8328 -36.502,-118.329z"
     id="path10297" /></glyph>
   <glyph
   unicode="l"
   horiz-adv-x="277"
   id="glyph10303"><path
     d="M72.0006 0l0 716.002 136.997 0 0 -716.002 -136.997 0z"
     id="path10301" /></glyph>
   <glyph
   unicode="9"
   horiz-adv-x="556"
   id="glyph10307"><path
     d="M55 166l84 7c7.16535,-39.6693 20.8346,-68.3307 41,-86.1654 20.1654,-17.8346 46,-26.8346 77.6693,-26.8346 27,0 50.6614,6.16535 71.1654,18.6693 20.4961,12.3307 37.1654,28.8346 50,49.6614 12.8346,20.6693 23.6693,48.6693 32.4961,83.8346 8.83465,35.1654 13.1732,71 13.1732,107.504 0,3.83465 -0.173228,9.83465 -0.503937,17.6614 -17.4961,-28 -41.4961,-50.8268 -71.8346,-68.1654 -30.3307,-17.4961 -63.3307,-26.1654 -98.6614,-26.1654 -59.1732,0 -109.173,21.5039 -150.173,64.5039 -40.8268,42.8268 -61.3307,99.4961 -61.3307,169.827 0,72.6693 21.3307,131 64.1654,175.339 42.6693,44.1654 96.1654,66.3307 160.669,66.3307 46.3307,0 88.8346,-12.4961 127.496,-37.6693 38.5039,-25 67.6693,-60.6614 87.6693,-107.165 20,-46.3307 30,-113.496 30,-201.331 0,-91.5039 -9.83465,-164.331 -29.6693,-218.504 -19.8268,-54.3307 -49.4961,-95.4961 -88.6614,-123.827 -39.1654,-28.3386 -85,-42.5039 -137.669,-42.5039 -56,0 -101.669,15.5039 -137.165,46.6693 -35.3307,31.1654 -56.6693,75 -63.8346,131.331zm359 315.835c0,50.3307 -13.3307,90.3307 -40,119.835 -26.4961,29.4961 -58.8346,44.3307 -96.8346,44.3307 -39.3307,0 -73.3307,-15.8346 -102,-47.6693 -28.8346,-31.8268 -43.1654,-73.1654 -43.1654,-123.827 0,-45.5039 13.6693,-82.5039 40.8346,-110.835 27.3307,-28.5039 61.3307,-42.6693 101.835,-42.6693 40.6614,0 74,14.1654 100.165,42.6693 26.1654,28.3307 39.1654,67.8346 39.1654,118.165z"
     id="path10305" /></glyph>
   <glyph
   unicode="à"
   horiz-adv-x="556"
   id="glyph10311"><path
     d="M404.998 64.9958c-32.6692,-27.8267 -64.169,-47.3266 -94.3343,-58.8305 -30.1652,-11.5039 -62.4919,-17.1613 -97.1689,-17.1613 -56.9998,0 -100.83,13.8307 -131.492,41.6573 -30.6731,27.6731 -46.0038,63.1769 -46.0038,106.334 0,25.3345 5.83462,48.5077 17.3385,69.5076 11.6574,20.9999 26.8227,37.6652 45.4959,50.3266 18.8267,12.6732 39.8266,22.3346 63.3305,28.8424 17.3385,4.49998 43.4998,8.8228 78.3304,13.1574 71.0076,8.33855 123.507,18.5078 157.003,30.1652 0.330707,12 0.496061,19.6771 0.496061,22.8424 0,35.6573 -8.32674,60.8265 -24.992,75.4958 -22.4999,19.8306 -56.0077,29.6692 -100.334,29.6692 -41.5038,0 -72.1651,-7.33462 -91.8303,-21.8385 -19.8424,-14.4921 -34.3345,-40.1691 -43.8423,-77.1611l-85.9957 12c7.83068,36.8266 20.6692,66.6612 38.6691,89.3264 17.9999,22.6653 43.9959,40.0038 77.9997,52.3344 33.8266,12.1653 73.3344,18.3424 118.003,18.3424 44.3266,0 80.4918,-5.17321 108.33,-15.6732 27.6613,-10.5 48.1652,-23.5038 61.1691,-39.3306 12.9921,-15.8385 22.1574,-35.8345 27.496,-59.9998 2.83463,-14.9999 4.33463,-41.9998 4.33463,-80.8343l0 -116.669c0,-81.4957 1.8307,-133.003 5.4921,-154.83 3.50786,-21.8385 10.8425,-42.6731 21.5078,-62.669l-92.0075 0c-8.8228,18.496 -14.4921,40.1691 -16.996,64.9958zm-7.00391 194.999c-31.9959,-12.9921 -79.9957,-23.9999 -143.999,-32.9999 -36.3306,-5.1614 -61.9958,-10.996 -76.9958,-17.4921 -14.9999,-6.50785 -26.5038,-16.0039 -34.6652,-28.3345 -8.1732,-12.496 -12.3307,-26.3385 -12.3307,-41.6691 0,-23.1613 8.83461,-42.6612 26.6574,-58.1691 17.8346,-15.496 43.8423,-23.3267 78.0115,-23.3267 33.8266,0 63.9919,7.33462 90.4957,22.1574 26.3267,14.6692 45.8266,34.8424 58.1691,60.3423 9.49603,19.8306 14.1614,48.9919 14.1614,87.4957l0.496061 31.9959zm-35.9999 323.007l-70.9958 0 -112.996 136.996 117.992 0 65.9997 -136.996z"
     id="path10309" /></glyph>
   <glyph
   unicode="z"
   horiz-adv-x="500"
   id="glyph10315"><path
     d="M15.9981 0l0 108 194.168 222.502c32.002,36.4961 55.5001,62.1615 70.8368,77.4982 -16.004,-0.998033 -37.004,-1.66536 -63.0001,-2.00197l-183 -0.998033 0 114 429.001 0 0 -96.9982 -198.172 -228.337 -69.8328 -75.6675c38.002,2.00197 61.6655,3.00001 70.8368,3.00001l212.168 0 0 -120.998 -463.005 0z"
     id="path10313" /></glyph>
   <glyph
   unicode="i"
   horiz-adv-x="277"
   id="glyph10319"><path
     d="M72.0001 588.999l0 126.998 137.002 0 0 -126.998 -137.002 0zm0 -588.999l0 519.001 137.002 0 0 -519.001 -137.002 0z"
     id="path10317" /></glyph>
  </font>
</defs>
</svg>
