<?xml version="1.0" encoding="UTF-8" standalone="no"?>
<!-- Creator: CorelDRAW X7 -->

<svg
   xml:space="preserve"
   width="1260px"
   height="411px"
   version="1.1"
   style="shape-rendering:geometricPrecision; text-rendering:geometricPrecision; image-rendering:optimizeQuality; fill-rule:evenodd; clip-rule:evenodd"
   viewBox="0 0 1260 411"
   id="svg8811"
   sodipodi:docname="ruestung_orizashi_05_it.svg"
   inkscape:version="1.2 (dc2aedaf03, 2022-05-15)"
   xmlns:inkscape="http://www.inkscape.org/namespaces/inkscape"
   xmlns:sodipodi="http://sodipodi.sourceforge.net/DTD/sodipodi-0.dtd"
   xmlns:xlink="http://www.w3.org/1999/xlink"
   xmlns="http://www.w3.org/2000/svg"
   xmlns:svg="http://www.w3.org/2000/svg"><sodipodi:namedview
   id="namedview8813"
   pagecolor="#ffffff"
   bordercolor="#000000"
   borderopacity="0.25"
   inkscape:showpageshadow="2"
   inkscape:pageopacity="0.0"
   inkscape:pagecheckerboard="0"
   inkscape:deskcolor="#d1d1d1"
   showgrid="false"
   inkscape:zoom="3.095238"
   inkscape:cx="321.13847"
   inkscape:cy="179.63077"
   inkscape:window-width="3840"
   inkscape:window-height="2054"
   inkscape:window-x="-11"
   inkscape:window-y="-11"
   inkscape:window-maximized="1"
   inkscape:current-layer="Ebene_x0020_1" />
 <defs
   id="defs8789">
  <font
   id="FontID0"
   horiz-adv-x="667"
   font-variant="normal"
   style="fill-rule:nonzero"
   font-weight="400,700">
	<font-face
   font-family="Arial"
   id="font-face8675">
	</font-face>
   <missing-glyph
   id="missing-glyph8679"><path
     d="M0 0z"
     id="path8677" /></missing-glyph>
   <glyph
   unicode="€"
   horiz-adv-x="556"
   id="glyph8683"><path
     d="M386 647c-54.6693,0 -100.496,-13.1654 -137.496,-39.4961 -22.1732,-15.5039 -42.1732,-37.6693 -60,-66.1732 -18.1732,-29.6614 -29,-57.6614 -32.1732,-84.3307l332.669 0 -13.1654 -66 -327.331 0c-0.338583,-6.83465 -0.503937,-13.3307 -0.503937,-19.3307 0,-25 0.165354,-39.8346 0.503937,-44.6693l314.496 0 -13.6693 -66 -290.496 0c13.4961,-74.3307 46.3307,-127.165 98.3307,-158.331 37.5039,-22.5039 77.8346,-33.6693 121.504,-33.6693 60.8346,0 108.165,16 142.331,48l0 -100.669c-40.6693,-18.8346 -85.4961,-28.3307 -134.669,-28.3307 -147.165,0 -246.496,61.1654 -298.165,183.331 -10.4961,24.6693 -19.4961,54.5039 -26.8346,89.6693l-74.3307 0 13.5039 66 51 0c-1,13.5039 -1.50394,28.3307 -1.50394,44.1654 0,6.50394 0.165354,13 0.503937,19.8346l-63.5039 0 13.5039 66 56.3307 0c20.1654,106 72.8346,182 157.669,228.165 52.3307,28.5039 110.165,42.8346 173.331,42.8346 60.4961,0 111.331,-13.1654 152.669,-39.4961l-19.5039 -90.5039c-39.6693,32.6693 -84.6693,49 -135,49z"
     id="path8681" /></glyph>
   <glyph
   unicode="c"
   horiz-adv-x="556"
   id="glyph8687"><path
     d="M524.002 364.997l-135.003 -23.9959c-4.49845,26.8305 -14.8326,46.9996 -30.9962,60.6675 -16.1698,13.4954 -37.0044,20.3293 -62.6702,20.3293 -34.1636,0 -61.4994,-11.8315 -81.8349,-35.5008 -20.3293,-23.6631 -30.497,-63.1632 -30.497,-118.667 0,-61.6658 10.3341,-105.165 30.9962,-130.665 20.6682,-25.4995 48.3368,-38.1629 83.0057,-38.1629 25.9986,0 47.3324,7.49948 63.8287,22.332 16.6689,14.8326 28.3341,40.332 35.168,76.6647l135.003 -22.9976c-14.0007,-62.0047 -40.8373,-108.838 -80.5038,-140.5 -39.6665,-31.6679 -92.8345,-47.5049 -159.664,-47.5049 -75.6664,0 -136.168,24.002 -181.171,71.8335 -45.1632,48.004 -67.6617,114.335 -67.6617,199.171 0,85.8342 22.6648,152.498 67.8342,200.329 45.1632,47.8377 106.33,71.6671 183.5,71.6671 62.9968,0 113.164,-13.6617 150.495,-40.8312 37.1708,-27.1694 63.8349,-68.4997 80.1711,-124.17z"
     id="path8685" /></glyph>
   <glyph
   unicode="t"
   horiz-adv-x="333"
   id="glyph8691"><path
     d="M309.001 518.998l0 -108.998 -93.9992 0 0 -210.164c0,-42.6675 0.831906,-67.5014 2.66826,-74.5018 1.83019,-7.00033 5.8295,-12.836 12.3307,-17.5008 6.33481,-4.49845 14.0007,-6.83395 23.164,-6.83395 12.836,0 31.1687,4.33207 55.3371,13.1688l11.4988 -106.669c-31.8343,-13.6679 -67.8342,-20.5019 -108.166,-20.5019 -24.6675,0 -46.8332,4.17185 -66.6695,12.5032 -19.8302,8.33138 -34.33,19.1646 -43.4994,32.3334 -9.32967,13.3351 -15.6645,31.1687 -19.331,53.8335 -2.83464,15.9972 -4.33207,48.3306 -4.33207,97.1666l0 227.166 -63.003 0 0 108.998 63.003 0 0 103.002 136.999 80.9968 0 -183.999 93.9992 0z"
     id="path8689" /></glyph>
   <glyph
   unicode="A"
   horiz-adv-x="722"
   id="glyph8695"><path
     d="M718.002 0l-156.17 0 -61.8322 162.998 -287.168 0 -59.4967 -162.998 -153.336 0 277.998 716 153.169 0 286.835 -716zm-265.002 284l-99.5021 265.002 -96.6674 -265.002 196.17 0z"
     id="path8693" /></glyph>
   <glyph
   unicode="0"
   horiz-adv-x="556"
   id="glyph8699"><path
     d="M42 353.331c0,84.5039 8.66929,152.835 26,204.504 17.5039,51.8346 43.3307,91.6693 77.6693,119.496 34.1654,27.8346 77.3307,41.6693 129.331,41.6693 38.3307,0 72,-7.66929 101.165,-23.1654 29,-15.5039 53,-37.8346 71.6693,-67 18.6693,-29 33.3307,-64.5039 44,-106.331 10.8346,-41.8346 16.1654,-98.3386 16.1654,-169.173 0,-84 -8.66929,-152 -25.8346,-203.661 -17.1654,-51.8346 -43,-91.6693 -77.3307,-119.669 -34.1654,-28 -77.5039,-42 -129.835,-42 -68.8346,0 -123,24.5039 -162.331,73.6693 -47.1654,60 -70.6693,157.165 -70.6693,291.661zm90 -0.330709c0,-117.835 13.6693,-196.165 41.1654,-234.835 27.5039,-38.8346 61.5039,-58.1654 101.835,-58.1654 40.3307,0 74.3307,19.5039 101.835,58.3307 27.4961,39 41.1654,117.173 41.1654,234.669 0,117.835 -13.6693,196.165 -41.1654,234.835 -27.3307,38.8346 -61.6693,58.1654 -102.835,58.1654 -40.3307,0 -72.6693,-17.1654 -96.8346,-51.3307 -30.1654,-43.5039 -45.1654,-124.165 -45.1654,-241.669z"
     id="path8697" /></glyph>
   <glyph
   unicode="O"
   horiz-adv-x="777"
   id="glyph8703"><path
     d="M43.0003 353.665c0,73.0044 10.9996,134.337 32.8325,183.999 16.1698,36.5053 38.5018,69.3378 66.6695,98.3374 28.1615,28.9996 58.9975,50.4998 92.4956,64.6668 44.6703,18.8319 96.1683,28.3341 154.5,28.3341 105.671,0 190.001,-32.8325 253.503,-98.3374 63.3296,-65.6651 94.9975,-156.83 94.9975,-273.666 0,-115.832 -31.5015,-206.497 -94.3319,-271.83 -62.8366,-65.5049 -147.001,-98.171 -252.166,-98.171 -106.502,0 -191.332,32.4998 -254.169,97.6719 -62.8305,64.9996 -94.3319,154.667 -94.3319,268.995zm148.997 4.83738c0,-81.1694 18.838,-142.669 56.3354,-184.671 37.4974,-41.8295 85.1687,-62.8305 142.835,-62.8305 57.8329,0 105.165,20.8346 142.33,62.3313 37.0044,41.6692 55.5035,104.001 55.5035,187.166 0,82.1676 -18,143.501 -54.1663,183.833 -36,40.5046 -83.8376,60.6675 -143.667,60.6675 -59.6692,0 -107.833,-20.5019 -144.333,-61.333 -36.5053,-40.9975 -54.838,-102.663 -54.838,-185.164z"
     id="path8701" /></glyph>
   <glyph
   unicode="-"
   horiz-adv-x="333"
   id="glyph8707"><path
     d="M31 215l0 88 272 0 0 -88 -272 0z"
     id="path8705" /></glyph>
   <glyph
   unicode="n"
   horiz-adv-x="610"
   id="glyph8711"><path
     d="M543.999 0l-136.999 0 0 264.503c0,55.9965 -3.00102,92.1628 -8.83053,108.499 -6.00205,16.4964 -15.5043,29.166 -28.8332,38.3293 -13.3351,9.16945 -29.3324,13.6679 -48.004,13.6679 -23.9959,0 -45.496,-6.50119 -64.5004,-19.4974 -19.1646,-13.0024 -32.167,-30.3368 -39.1612,-51.6706 -7.16671,-21.5001 -10.6669,-61.1666 -10.6669,-119.166l0 -234.665 -137.006 0 0 518.998 127.004 0 0 -76.1656c45.496,58.1656 102.663,87.1652 171.835,87.1652 30.3307,0 58.1656,-5.49674 83.3323,-16.33 25.3331,-10.9996 44.3313,-24.8339 57.1673,-41.6692 12.9962,-17.0017 21.9993,-36.1663 26.9969,-57.6665 5.17014,-21.5001 7.66586,-52.1636 7.66586,-92.1628l0 -322.169z"
     id="path8709" /></glyph>
   <glyph
   unicode="*"
   horiz-adv-x="389"
   id="glyph8715"><path
     d="M31 585l22.3307 69c51.6693,-18.1654 89,-33.8346 112.504,-47.1654 -6.16535,58.6693 -9.50394,99.1654 -9.83465,121.165l71 0c-1,-32.1654 -4.66929,-72.3307 -11.3307,-120.669 33.4961,16.8346 71.8346,32.5039 115,46.6693l22.3307 -69c-41.1654,-13.6693 -81.4961,-22.8346 -121.165,-27.3307 19.8346,-17.1654 47.6693,-48 83.6693,-92.1654l-58.3386 -41.5039c-18.8346,25.6693 -41.1654,60.6693 -66.8346,104.835 -24.1654,-45.8346 -45.3307,-80.8346 -63.4961,-104.835l-57.3307 41.5039c37.4961,46.4961 64.4961,77.1654 80.6614,92.1654 -41.8346,8.16535 -81.4961,17.3307 -119.165,27.3307z"
     id="path8713" /></glyph>
   <glyph
   unicode="h"
   horiz-adv-x="610"
   id="glyph8719"><path
     d="M207.003 716l0 -265.335c44.4977,52.8353 97.8321,79.333 159.664,79.333 31.8343,0 60.5011,-5.8295 86.0006,-17.5008 25.4995,-11.8315 44.6641,-26.6641 57.6665,-44.9969 12.9962,-18.1664 21.8329,-38.3354 26.4977,-60.5011 4.83738,-22.1657 7.16671,-56.5018 7.16671,-102.996l0 -304.003 -136.999 0 0 273.666c0,54.3327 -2.66826,88.8352 -7.83224,103.501 -5.33652,14.6662 -14.6662,26.3314 -28.0013,34.8353 -13.3351,8.66414 -29.9979,12.9962 -50.167,12.9962 -22.9976,0 -43.4994,-5.49674 -61.6658,-16.6628 -18.1664,-11.0058 -31.3351,-27.6686 -39.6665,-50.0006 -8.49776,-22.1718 -12.6635,-55.1708 -12.6635,-98.6702l0 -259.666 -137.006 0 0 716 137.006 0z"
     id="path8717" /></glyph>
   <glyph
   unicode="e"
   horiz-adv-x="556"
   id="glyph8723"><path
     d="M371.997 164.003l137.006 -23.0037c-17.5008,-50.167 -45.3358,-88.3299 -83.1721,-114.667 -37.9965,-26.165 -85.4953,-39.3337 -142.33,-39.3337 -90.1663,0 -157.002,29.5049 -200.169,88.5024 -34.1636,47.3324 -51.3317,107.002 -51.3317,179.168 0,86.0006 22.4984,153.496 67.3351,202.165 44.8305,48.8359 101.665,73.1646 170.331,73.1646 76.9975,0 137.831,-25.4995 182.502,-76.4984 44.4977,-50.9989 65.8315,-129.167 63.8287,-234.499l-342.998 0c0.998287,-40.6648 11.9979,-72.3327 33.1653,-95.0036 21.001,-22.6648 47.3324,-33.9972 78.6675,-33.9972 21.5001,0 39.5001,5.83566 53.9999,17.5008 14.6662,11.6652 25.6658,30.497 33.1653,56.5018zm8.00478 138.996c-1.00445,39.8329 -11.166,70.1697 -30.6696,90.8318 -19.4974,20.8346 -43.1667,31.1687 -71.168,31.1687 -29.8315,0 -54.4991,-10.9996 -73.9965,-32.8325 -19.5036,-21.8329 -28.9996,-51.6644 -28.6669,-89.168l204.501 0z"
     id="path8721" /></glyph>
   <glyph
   unicode="b"
   horiz-adv-x="610"
   id="glyph8727"><path
     d="M66.003 0l0 716.001 136.998 0 0 -258.336c42.3348,48.1651 92.331,72.3344 150.335,72.3344 63.1601,0 115.334,-22.8298 156.667,-68.6628 41.3326,-45.833 61.9941,-111.672 61.9941,-197.508 0,-88.6593 -20.9988,-156.994 -63.1601,-204.996 -42.171,-47.8375 -93.5067,-71.8333 -153.67,-71.8333 -29.672,0 -58.8332,7.67096 -87.6667,22.8298 -28.8336,15.3323 -53.6678,37.3333 -74.5027,66.3403l0 -76.1699 -126.995 0zm134.993 269.495c0,-53.8316 8.49973,-93.8247 25.4992,-119.497 23.8416,-36.6683 55.335,-54.9977 94.8366,-54.9977 30.3369,0 56.1637,13.0002 77.6636,39.0005 21.3361,26.0003 32.0041,66.9956 32.0041,122.832 0,59.4981 -10.8319,102.334 -32.3317,128.672 -21.4999,26.328 -49.0035,39.4919 -82.6652,39.4919 -33.0063,0 -60.3365,-12.8267 -82.1737,-38.4993 -21.8275,-25.663 -32.8329,-64.6635 -32.8329,-117.001z"
     id="path8725" /></glyph>
   <glyph
   unicode="s"
   horiz-adv-x="556"
   id="glyph8731"><path
     d="M22.9976 146.003l138.004 20.9948c5.8295,-26.4977 17.6672,-46.6668 35.6672,-60.3286 17.8336,-13.8343 43.0003,-20.6682 75.1673,-20.6682 35.4946,0 62.1649,6.50119 80.1649,19.4974 11.9979,9.16945 18,21.5001 18,36.838 0,10.328 -3.33379,18.9983 -9.83497,25.8322 -6.83395,6.50119 -22.1657,12.6635 -45.8349,18.1664 -110.828,24.5012 -180.998,46.8332 -210.663,66.9961 -41.1701,28.1677 -61.6658,67.1687 -61.6658,117.003 0,45.1694 17.8336,82.9995 53.3344,113.669 35.4946,30.6634 90.499,45.9951 164.995,45.9951 71.0016,0 123.837,-11.6652 158.333,-34.8291 34.5025,-23.3365 58.3382,-57.6665 71.3344,-103.169l-129.001 -24.002c-5.49674,20.3355 -16.1636,36 -31.6617,46.8332 -15.5043,10.8333 -37.6699,16.1698 -66.5032,16.1698 -36.3327,0 -62.3313,-5.00376 -78.1683,-15.1653 -10.5005,-7.16671 -15.6645,-16.5025 -15.6645,-27.8349 0,-9.83497 4.49845,-18.1664 13.6679,-25.0003 12.4971,-9.16945 55.331,-21.9993 128.668,-38.6682 73.331,-16.6628 124.496,-36.9982 153.496,-61.1666 28.8332,-24.3348 43.1667,-58.4984 43.1667,-102.164 0,-47.4987 -19.8302,-88.5024 -59.663,-122.666 -39.6665,-34.1698 -98.5038,-51.3378 -176.5,-51.3378 -70.6689,0 -126.672,14.3334 -168.002,42.8339 -41.1701,28.5005 -68.167,67.1687 -80.8366,116.171z"
     id="path8729" /></glyph>
   <glyph
   unicode="p"
   horiz-adv-x="610"
   id="glyph8735"><path
     d="M68.0006 518.998l127.996 0 0 -76.1656c16.6689,25.9986 39.001,46.9996 67.3351,63.1694 28.3341,15.9972 59.8356,23.9959 94.3319,23.9959 60.1684,0 111.334,-23.6631 153.336,-70.9955 42.002,-47.1721 63.003,-113.17 63.003,-197.501 0,-86.8325 -21.1674,-154.168 -63.5021,-202.338 -42.3348,-48.1643 -93.6664,-72.1663 -154.001,-72.1663 -28.6669,0 -54.6655,5.66928 -78.0019,17.1681 -23.164,11.3324 -47.8315,30.836 -73.4973,58.4984l0 -259.666 -136.999 0 0 716zm134.997 -251.501c0,-58.4984 11.5049,-101.665 34.6689,-129.666 22.9976,-27.8288 51.1653,-41.8295 84.1642,-41.8295 31.8343,0 58.3382,12.8298 79.5055,38.4957 21.1612,25.672 31.6617,67.6678 31.6617,126.166 0,54.6716 -10.8333,95.17 -32.6662,121.668 -21.6665,26.5039 -48.6634,39.6665 -80.8304,39.6665 -33.4981,0 -61.333,-12.9962 -83.3323,-39.001 -22.1718,-25.9986 -33.1715,-64.4943 -33.1715,-115.499z"
     id="path8733" /></glyph>
   <glyph
   unicode=","
   horiz-adv-x="277"
   id="glyph8739"><path
     d="M89 0l0 100 100 0 0 -100c0,-36.8346 -6.49606,-66.6693 -19.6693,-89.3307 -13,-22.6693 -33.8268,-40.3386 -62.3307,-52.6693l-24 38c18.6693,8.16535 32.3307,20.1654 41,35.8346 8.83465,15.8346 13.8346,38.4961 14.8346,68.1654l-49.8346 0z"
     id="path8737" /></glyph>
   <glyph
   unicode="m"
   horiz-adv-x="889"
   id="glyph8743"><path
     d="M61.9985 518.998l126 0 0 -70.8291c45.1694,54.4991 99.0029,81.8287 161.501,81.8287 33.1653,0 61.9985,-6.83395 86.3333,-20.4957 24.5012,-13.6679 44.5039,-34.3361 60.002,-62.0047 22.8312,27.6686 47.4987,48.3368 73.8301,62.0047 26.3375,13.6617 54.5052,20.4957 84.5031,20.4957 37.9965,0 70.1635,-7.66586 96.6674,-23.164 26.3314,-15.4981 46.0013,-38.1691 58.9975,-68.167 9.50221,-21.9993 14.167,-57.8329 14.167,-107.334l0 -331.333 -136.999 0 0 296.165c0,51.5042 -4.66483,84.6695 -14.167,99.5021 -12.6635,19.4974 -32.3334,29.3324 -58.6648,29.3324 -19.1708,0 -37.3372,-5.8295 -54.3327,-17.5008 -16.8353,-11.8315 -29.166,-28.9996 -36.6716,-51.498 -7.49948,-22.6648 -11.166,-58.332 -11.166,-107.168l0 -248.832 -136.999 0 0 284c0,50.3334 -2.49572,82.9995 -7.3331,97.4994 -4.83122,14.6662 -12.3307,25.6658 -22.6648,32.8325 -10.1677,7.16671 -24.1684,10.6669 -41.6692,10.6669 -21.1674,0 -40.1656,-5.66312 -57.0009,-17.0017 -16.9955,-11.4988 -28.9996,-27.8288 -36.3327,-49.3289 -7.3331,-21.5001 -10.9996,-57.1673 -10.9996,-106.835l0 -251.833 -136.999 0 0 518.998z"
     id="path8741" /></glyph>
   <glyph
   unicode="u"
   horiz-adv-x="610"
   id="glyph8747"><path
     d="M414.998 0l0 77.6692c-18.9983,-27.6686 -43.8322,-49.6679 -74.662,-66.1704 -30.836,-16.33 -63.3358,-24.5012 -97.4994,-24.5012 -35.0017,0 -66.3368,7.67202 -94.0053,23.0037 -27.8288,15.3317 -47.8315,36.9982 -60.1622,64.6668 -12.5032,27.8288 -18.6717,66.1642 -18.6717,115.167l0 329.164 137.006 0 0 -238.997c0,-73.1707 2.49572,-117.835 7.66586,-134.337 4.9976,-16.4964 14.167,-29.6651 27.6624,-39.1612 13.3351,-9.66859 30.3368,-14.4998 51.0051,-14.4998 23.4967,0 44.4977,6.49503 63.1632,19.331 18.6655,12.836 31.3351,28.8332 38.1691,47.9979 6.83395,19.1708 10.3341,65.8376 10.3341,140.333l0 219.333 136.999 0 0 -518.998 -127.004 0z"
     id="path8745" /></glyph>
   <glyph
   unicode=" "
   horiz-adv-x="277"
   id="glyph8749" />
   <glyph
   unicode="d"
   horiz-adv-x="556"
   id="glyph8753"><path
     d="M400.994 0l0 65.8344c-32.8227,-51.1652 -81.165,-76.8304 -144.992,-76.8304 -41.3384,0 -79.3343,11.3267 -113.834,34.1573 -34.6652,22.6771 -61.4998,54.5077 -80.669,95.1729 -19.0039,40.8305 -28.4999,87.6611 -28.4999,140.669 0,51.6612 8.66926,98.4917 25.8306,140.669 17.3385,41.9998 43.1691,74.3265 77.669,96.661 34.3345,22.4999 73.0036,33.6731 115.5,33.6731 31.3345,0 59.173,-6.6732 83.5036,-19.8424 24.3306,-13.1692 44.1612,-30.4959 59.4919,-51.6612l0 257.503 88.0036 0 0 -716.005 -82.0036 0zm-277.995 258.838c0,-66.3423 13.996,-115.842 42.1652,-148.677 28.0038,-32.8227 61.1691,-49.1573 99.3303,-49.1573 38.5038,0 71.1729,15.6614 98.1728,46.9959 26.8345,31.3345 40.3345,79.169 40.3345,143.503 0,70.6651 -13.6653,122.669 -41.1731,155.834 -27.3306,33.1652 -61.1572,49.6652 -101.326,49.6652 -39.1652,0 -71.8344,-15.8385 -98.1728,-47.6691 -26.1613,-31.8306 -39.3306,-82.0036 -39.3306,-150.495z"
     id="path8751" /></glyph>
   <glyph
   unicode="r"
   horiz-adv-x="389"
   id="glyph8757"><path
     d="M202.997 0l-136.999 0 0 518.998 127.004 0 0 -73.6637c21.8329,34.8291 41.4967,57.6665 58.9975,68.4997 17.5008,10.8333 37.331,16.1636 59.5028,16.1636 31.329,0 61.4994,-8.66414 90.499,-25.8322l-42.5011 -119.665c-23.164,14.999 -44.6641,22.4984 -64.5004,22.4984 -19.331,0 -35.6672,-5.33036 -49.0023,-15.8309 -13.329,-10.6669 -23.8295,-29.6713 -31.4953,-57.3337 -7.67202,-27.6686 -11.5049,-85.6678 -11.5049,-173.837l0 -159.997z"
     id="path8755" /></glyph>
   <glyph
   unicode="a"
   horiz-adv-x="556"
   id="glyph8761"><path
     d="M404.998 64.9958c-32.6692,-27.8267 -64.169,-47.3266 -94.3343,-58.8305 -30.1652,-11.5039 -62.4919,-17.1613 -97.1689,-17.1613 -56.9998,0 -100.83,13.8307 -131.492,41.6573 -30.6731,27.6731 -46.0038,63.1769 -46.0038,106.334 0,25.3345 5.83462,48.5077 17.3385,69.5076 11.6574,20.9999 26.8227,37.6652 45.4959,50.3266 18.8267,12.6732 39.8266,22.3346 63.3305,28.8424 17.3385,4.49998 43.4998,8.8228 78.3304,13.1574 71.0076,8.33855 123.507,18.5078 157.003,30.1652 0.330707,12 0.496061,19.6771 0.496061,22.8424 0,35.6573 -8.32674,60.8265 -24.992,75.4958 -22.4999,19.8306 -56.0077,29.6692 -100.334,29.6692 -41.5038,0 -72.1651,-7.33462 -91.8303,-21.8385 -19.8424,-14.4921 -34.3345,-40.1691 -43.8423,-77.1611l-85.9957 12c7.83068,36.8266 20.6692,66.6612 38.6691,89.3264 17.9999,22.6653 43.9959,40.0038 77.9997,52.3344 33.8266,12.1653 73.3344,18.3424 118.003,18.3424 44.3266,0 80.4918,-5.17321 108.33,-15.6732 27.6613,-10.5 48.1652,-23.5038 61.1691,-39.3306 12.9921,-15.8385 22.1574,-35.8345 27.496,-59.9998 2.83463,-14.9999 4.33463,-41.9998 4.33463,-80.8343l0 -116.669c0,-81.4957 1.8307,-133.003 5.4921,-154.83 3.50786,-21.8385 10.8425,-42.6731 21.5078,-62.669l-92.0075 0c-8.8228,18.496 -14.4921,40.1691 -16.996,64.9958zm-7.00391 194.999c-31.9959,-12.9921 -79.9957,-23.9999 -143.999,-32.9999 -36.3306,-5.1614 -61.9958,-10.996 -76.9958,-17.4921 -14.9999,-6.50785 -26.5038,-16.0039 -34.6652,-28.3345 -8.1732,-12.496 -12.3307,-26.3385 -12.3307,-41.6691 0,-23.1613 8.83461,-42.6612 26.6574,-58.1691 17.8346,-15.496 43.8423,-23.3267 78.0115,-23.3267 33.8266,0 63.9919,7.33462 90.4957,22.1574 26.3267,14.6692 45.8266,34.8424 58.1691,60.3423 9.49603,19.8306 14.1614,48.9919 14.1614,87.4957l0.496061 31.9959z"
     id="path8759" /></glyph>
   <glyph
   unicode="o"
   horiz-adv-x="610"
   id="glyph8765"><path
     d="M39.9993 265.834c0,45.6685 11.166,89.8335 33.6645,132.501 22.5046,42.8339 54.3389,75.3337 95.5028,97.8321 41.1639,22.4984 86.9989,33.8308 137.831,33.8308 78.5011,0 142.669,-25.4995 192.836,-76.4984 50.167,-51.1653 75.1673,-115.499 75.1673,-193.501 0,-78.6675 -25.3331,-143.833 -75.8328,-195.498 -50.6661,-51.6644 -114.335,-77.5028 -191.166,-77.5028 -47.5049,0 -92.8345,10.8333 -136.001,32.3334 -43.0003,21.5001 -75.8328,53.0016 -98.3374,94.6709 -22.4984,41.4967 -33.6645,92.1628 -33.6645,151.832zm140.999 -7.3331c0,-51.498 12.1705,-90.9982 36.4991,-118.334 24.5012,-27.5022 54.5052,-41.1639 90.3388,-41.1639 35.661,0 65.6651,13.6617 89.8335,41.1639 24.1622,27.3358 36.3327,67.1687 36.3327,119.332 0,50.8325 -12.1705,89.9999 -36.3327,117.336 -24.1684,27.496 -54.1725,41.1639 -89.8335,41.1639 -35.8336,0 -65.8376,-13.6679 -90.3388,-41.1639 -24.3286,-27.3358 -36.4991,-66.8359 -36.4991,-118.334z"
     id="path8763" /></glyph>
   <glyph
   unicode="l"
   horiz-adv-x="277"
   id="glyph8769"><path
     d="M71.9971 0l0 716.001 137.008 0 0 -716.001 -137.008 0z"
     id="path8767" /></glyph>
   <glyph
   unicode="9"
   horiz-adv-x="556"
   id="glyph8773"><path
     d="M55 166l84 7c7.16535,-39.6693 20.8346,-68.3307 41,-86.1654 20.1654,-17.8346 46,-26.8346 77.6693,-26.8346 27,0 50.6614,6.16535 71.1654,18.6693 20.4961,12.3307 37.1654,28.8346 50,49.6614 12.8346,20.6693 23.6693,48.6693 32.4961,83.8346 8.83465,35.1654 13.1732,71 13.1732,107.504 0,3.83465 -0.173228,9.83465 -0.503937,17.6614 -17.4961,-28 -41.4961,-50.8268 -71.8346,-68.1654 -30.3307,-17.4961 -63.3307,-26.1654 -98.6614,-26.1654 -59.1732,0 -109.173,21.5039 -150.173,64.5039 -40.8268,42.8268 -61.3307,99.4961 -61.3307,169.827 0,72.6693 21.3307,131 64.1654,175.339 42.6693,44.1654 96.1654,66.3307 160.669,66.3307 46.3307,0 88.8346,-12.4961 127.496,-37.6693 38.5039,-25 67.6693,-60.6614 87.6693,-107.165 20,-46.3307 30,-113.496 30,-201.331 0,-91.5039 -9.83465,-164.331 -29.6693,-218.504 -19.8268,-54.3307 -49.4961,-95.4961 -88.6614,-123.827 -39.1654,-28.3386 -85,-42.5039 -137.669,-42.5039 -56,0 -101.669,15.5039 -137.165,46.6693 -35.3307,31.1654 -56.6693,75 -63.8346,131.331zm359 315.835c0,50.3307 -13.3307,90.3307 -40,119.835 -26.4961,29.4961 -58.8346,44.3307 -96.8346,44.3307 -39.3307,0 -73.3307,-15.8346 -102,-47.6693 -28.8346,-31.8268 -43.1654,-73.1654 -43.1654,-123.827 0,-45.5039 13.6693,-82.5039 40.8346,-110.835 27.3307,-28.5039 61.3307,-42.6693 101.835,-42.6693 40.6614,0 74,14.1654 100.165,42.6693 26.1654,28.3307 39.1654,67.8346 39.1654,118.165z"
     id="path8771" /></glyph>
   <glyph
   unicode="z"
   horiz-adv-x="500"
   id="glyph8777"><path
     d="M15.9972 0l0 108 194.167 222.501c32.0006,36.4991 55.5035,62.1649 70.8352,77.4966 -15.9972,-0.998287 -36.9982,-1.66381 -62.9968,-1.99657l-183.001 -0.998287 0 113.996 428.998 0 0 -97.0002 -198.166 -228.33 -69.8369 -75.6664c38.0027,1.99657 61.6719,3.00102 70.8352,3.00102l212.167 0 0 -121.002 -463.002 0z"
     id="path8775" /></glyph>
   <glyph
   unicode="i"
   horiz-adv-x="277"
   id="glyph8781"><path
     d="M71.9999 589.002l0 126.998 136.999 0 0 -126.998 -136.999 0zm0 -589.002l0 518.998 136.999 0 0 -518.998 -136.999 0z"
     id="path8779" /></glyph>
  </font>
</defs>
</svg>
