<?xml version="1.0" encoding="UTF-8" standalone="no"?>
<!-- Creator: CorelDRAW X7 -->

<svg
   xml:space="preserve"
   width="1260px"
   height="411px"
   version="1.1"
   style="shape-rendering:geometricPrecision; text-rendering:geometricPrecision; image-rendering:optimizeQuality; fill-rule:evenodd; clip-rule:evenodd"
   viewBox="0 0 1260 411"
   id="svg135"
   sodipodi:docname="ruestung_orizashi_04_de.svg"
   inkscape:version="1.2 (dc2aedaf03, 2022-05-15)"
   xmlns:inkscape="http://www.inkscape.org/namespaces/inkscape"
   xmlns:sodipodi="http://sodipodi.sourceforge.net/DTD/sodipodi-0.dtd"
   xmlns:xlink="http://www.w3.org/1999/xlink"
   xmlns="http://www.w3.org/2000/svg"
   xmlns:svg="http://www.w3.org/2000/svg"><sodipodi:namedview
   id="namedview137"
   pagecolor="#ffffff"
   bordercolor="#000000"
   borderopacity="0.25"
   inkscape:showpageshadow="2"
   inkscape:pageopacity="0.0"
   inkscape:pagecheckerboard="0"
   inkscape:deskcolor="#d1d1d1"
   showgrid="false"
   inkscape:zoom="1.547619"
   inkscape:cx="451.66155"
   inkscape:cy="205.47693"
   inkscape:window-width="3840"
   inkscape:window-height="2054"
   inkscape:window-x="-11"
   inkscape:window-y="-11"
   inkscape:window-maximized="1"
   inkscape:current-layer="Ebene_x0020_2" />
 <defs
   id="defs117">
  <font
   id="FontID0"
   horiz-adv-x="667"
   font-variant="normal"
   style="fill-rule:nonzero"
   font-weight="400,700">
	<font-face
   font-family="Arial"
   id="font-face2">
	</font-face>
   <missing-glyph
   id="missing-glyph6"><path
     d="M0 0z"
     id="path4" /></missing-glyph>
   <glyph
   unicode="f"
   horiz-adv-x="332"
   id="glyph10"><path
     d="M11.9985 518.997l76.0058 0 0 39.1685c0,43.6645 4.66248,76.3388 13.9967,97.8381 9.33421,21.6657 26.4947,39.1593 51.5,52.6657 25.1626,13.4971 56.8286,20.3336 95.1645,20.3336 39.1685,0 77.671,-5.83735 115.332,-17.5028l-17.4935 -95.331c-22.341,5.16203 -43.8403,7.83556 -64.5069,7.83556 -20.3336,0 -34.8298,-4.67173 -43.6645,-14.0059 -8.83466,-9.33421 -13.3306,-27.3273 -13.3306,-53.9978l0 -37.0038 103 0 0 -107.996 -103 0 0 -411.001 -136.997 0 0 411.001 -76.0058 0 0 107.996z"
     id="path8" /></glyph>
   <glyph
   unicode="€"
   horiz-adv-x="556"
   id="glyph14"><path
     d="M386 647c-54.6693,0 -100.496,-13.1654 -137.496,-39.4961 -22.1732,-15.5039 -42.1732,-37.6693 -60,-66.1732 -18.1732,-29.6614 -29,-57.6614 -32.1732,-84.3307l332.669 0 -13.1654 -66 -327.331 0c-0.338583,-6.83465 -0.503937,-13.3307 -0.503937,-19.3307 0,-25 0.165354,-39.8346 0.503937,-44.6693l314.496 0 -13.6693 -66 -290.496 0c13.4961,-74.3307 46.3307,-127.165 98.3307,-158.331 37.5039,-22.5039 77.8346,-33.6693 121.504,-33.6693 60.8346,0 108.165,16 142.331,48l0 -100.669c-40.6693,-18.8346 -85.4961,-28.3307 -134.669,-28.3307 -147.165,0 -246.496,61.1654 -298.165,183.331 -10.4961,24.6693 -19.4961,54.5039 -26.8346,89.6693l-74.3307 0 13.5039 66 51 0c-1,13.5039 -1.50394,28.3307 -1.50394,44.1654 0,6.50394 0.165354,13 0.503937,19.8346l-63.5039 0 13.5039 66 56.3307 0c20.1654,106 72.8346,182 157.669,228.165 52.3307,28.5039 110.165,42.8346 173.331,42.8346 60.4961,0 111.331,-13.1654 152.669,-39.4961l-19.5039 -90.5039c-39.6693,32.6693 -84.6693,49 -135,49z"
     id="path12" /></glyph>
   <glyph
   unicode="ü"
   horiz-adv-x="610"
   id="glyph18"><path
     d="M414.999 0l0 77.6641c-19.0006,-27.6666 -43.8346,-49.661 -74.6633,-66.1656 -30.8357,-16.3293 -63.333,-24.4975 -97.4991,-24.4975 -35.0004,0 -66.3339,7.66335 -94.0004,22.997 -27.8348,15.3337 -47.8381,36.9986 -60.1709,64.6652 -12.5011,27.8348 -18.6641,66.1726 -18.6641,115.168l0 329.166 137.001 0 0 -238.994c0,-73.1699 2.49602,-117.839 7.66335,-134.336 4.99905,-16.4976 14.1698,-29.6648 27.6666,-39.1651 13.3355,-9.66858 30.3379,-14.4994 51.0002,-14.4994 23.5019,0 44.5007,6.49947 63.1718,19.3301 18.6641,12.8377 31.3335,28.8375 38.1625,47.9993 6.83601,19.1689 10.3346,65.8361 10.3346,140.338l0 219.327 137.001 0 0 -518.997 -127.003 0zm-267.502 585.997l0 118 118 0 0 -118 -118 0zm210.5 0l0 118 118 0 0 -118 -118 0z"
     id="path16" /></glyph>
   <glyph
   unicode="R"
   horiz-adv-x="722"
   id="glyph22"><path
     d="M73.0016 0l0 716 304.501 0c76.5002,0 132.163,-6.49947 166.834,-19.3372 34.8321,-12.8307 62.4987,-35.6665 83.3292,-68.4933 20.8376,-33.0022 31.3335,-70.5056 31.3335,-112.84 0,-53.8327 -15.6632,-98.1651 -47.165,-133.166 -31.5017,-35.0004 -78.4985,-56.9948 -141.165,-66.1656 31.1652,-18.1663 56.8336,-38.1625 76.998,-59.9957 20.3328,-21.8402 47.6698,-60.6687 81.9971,-116.338l87.3397 -139.665 -172.835 0 -103.669 156.331c-37.1669,55.5014 -62.667,90.5018 -76.5002,105.001 -13.665,14.3381 -28.1644,24.3362 -43.4981,29.6648 -15.502,5.3356 -39.8312,7.99989 -73.1699,7.99989l-29.3282 0 0 -298.997 -145.001 0zm145.001 413l106.999 0c69.3347,0 112.496,3.00083 129.835,8.83423 17.1637,5.8334 30.8287,15.9998 40.4972,30.3309 9.82984,14.3311 14.6676,32.3361 14.6676,53.8327 0,24.1679 -6.49947,43.5051 -19.3372,58.5022 -12.8307,14.8359 -30.9969,24.1679 -54.3305,28.0031 -11.8351,1.66168 -47.0037,2.49602 -105.499,2.49602l-112.833 0 0 -181.999z"
     id="path20" /></glyph>
   <glyph
   unicode="c"
   horiz-adv-x="556"
   id="glyph26"><path
     d="M524.003 365.001l-135.002 -23.9997c-4.50125,26.8322 -14.8359,46.9967 -31.0039,60.6687 -16.161,13.4967 -36.9986,20.3328 -62.6599,20.3328 -34.1731,0 -61.5031,-11.8351 -81.8358,-35.5052 -20.3328,-23.6631 -30.4991,-63.1648 -30.4991,-118.666 0,-61.6643 10.3346,-105.162 30.9969,-130.662 20.6693,-25.5001 48.3359,-38.1695 82.9997,-38.1695 26.0049,0 47.3333,7.50209 63.8378,22.331 16.6658,14.8359 28.3326,40.336 35.1616,76.6685l135.002 -22.997c-14.0016,-62.0009 -40.8338,-108.836 -80.5037,-140.499 -39.6629,-31.67 -92.8295,-47.5015 -159.661,-47.5015 -75.6659,0 -136.166,23.9997 -181.172,71.8307 -45.1668,47.9993 -67.666,114.333 -67.666,199.17 0,85.8323 22.6675,152.496 67.8343,200.334 45.1668,47.8311 106.333,71.6624 183.5,71.6624 63.0035,0 113.169,-13.665 150.504,-40.8338 37.1669,-27.1618 63.8308,-68.5004 80.1671,-124.163z"
     id="path24" /></glyph>
   <glyph
   unicode="t"
   horiz-adv-x="332"
   id="glyph30"><path
     d="M309 518.997l0 -108.995 -93.9989 0 0 -210.172c0,-42.6654 0.832586,-67.4949 2.66427,-74.4979 1.83169,-7.00297 5.83735,-12.8311 12.3315,-17.5028 6.3369,-4.49596 14.0059,-6.8272 23.1736,-6.8272 12.8311,0 31.1665,4.32944 55.3299,13.1641l11.4989 -106.663c-31.8325,-13.6729 -67.8372,-20.5001 -108.162,-20.5001 -24.6723,0 -46.8376,4.16293 -66.6716,12.498 -19.834,8.33511 -34.3303,19.168 -43.498,32.3321 -9.33421,13.3306 -15.6711,31.1665 -19.3345,53.8313 -2.83079,16.0041 -4.32944,48.3362 -4.32944,97.172l0 227.166 -63.0082 0 0 108.995 63.0082 0 0 103 136.997 81.0013 0 -184.001 93.9989 0z"
     id="path28" /></glyph>
   <glyph
   unicode="0"
   horiz-adv-x="556"
   id="glyph34"><path
     d="M42 353.331c0,84.5039 8.66929,152.835 26,204.504 17.5039,51.8346 43.3307,91.6693 77.6693,119.496 34.1654,27.8346 77.3307,41.6693 129.331,41.6693 38.3307,0 72,-7.66929 101.165,-23.1654 29,-15.5039 53,-37.8346 71.6693,-67 18.6693,-29 33.3307,-64.5039 44,-106.331 10.8346,-41.8346 16.1654,-98.3386 16.1654,-169.173 0,-84 -8.66929,-152 -25.8346,-203.661 -17.1654,-51.8346 -43,-91.6693 -77.3307,-119.669 -34.1654,-28 -77.5039,-42 -129.835,-42 -68.8346,0 -123,24.5039 -162.331,73.6693 -47.1654,60 -70.6693,157.165 -70.6693,291.661zm90 -0.330709c0,-117.835 13.6693,-196.165 41.1654,-234.835 27.5039,-38.8346 61.5039,-58.1654 101.835,-58.1654 40.3307,0 74.3307,19.5039 101.835,58.3307 27.4961,39 41.1654,117.173 41.1654,234.669 0,117.835 -13.6693,196.165 -41.1654,234.835 -27.3307,38.8346 -61.6693,58.1654 -102.835,58.1654 -40.3307,0 -72.6693,-17.1654 -96.8346,-51.3307 -30.1654,-43.5039 -45.1654,-124.165 -45.1654,-241.669z"
     id="path32" /></glyph>
   <glyph
   unicode="O"
   horiz-adv-x="777"
   id="glyph38"><path
     d="M43.0003 353.664c0,73.0016 11.0007,134.336 32.8339,184.004 16.168,36.5008 38.499,69.3347 66.6634,98.3334 28.1714,28.9987 59,50.4953 92.5,64.6652 44.669,18.8323 96.1669,28.3326 154.501,28.3326 105.667,0 189.999,-32.8339 253.5,-98.3334 63.333,-65.6678 95.003,-156.836 95.003,-273.665 0,-115.834 -31.5017,-206.504 -94.337,-271.835 -62.8282,-65.4995 -146.999,-98.1651 -252.168,-98.1651 -106.495,0 -191.331,32.4974 -254.166,97.6673 -62.8282,65.0017 -94.33,154.662 -94.33,268.995zm148.997 4.83779c0,-81.1698 18.8394,-142.666 56.3358,-184.671 37.5034,-41.8294 85.1662,-62.8282 142.834,-62.8282 57.8362,0 105.169,20.8306 142.336,62.3304 36.9986,41.6681 55.4944,103.999 55.4944,187.167 0,82.1654 -17.998,143.5 -54.1623,183.836 -36.003,40.4972 -83.8341,60.6617 -143.668,60.6617 -59.6661,0 -107.834,-20.501 -144.335,-61.3278 -36.5008,-41.0021 -54.8353,-102.666 -54.8353,-185.168z"
     id="path36" /></glyph>
   <glyph
   unicode="-"
   horiz-adv-x="333"
   id="glyph42"><path
     d="M31 215l0 88 272 0 0 -88 -272 0z"
     id="path40" /></glyph>
   <glyph
   unicode="n"
   horiz-adv-x="610"
   id="glyph46"><path
     d="M543.999 0l-137.001 0 0 264.501c0,55.9992 -3.00083,92.1635 -8.83423,108.5 -5.99466,16.4976 -15.495,29.167 -28.8304,38.3308 -13.3355,9.17077 -29.3353,13.665 -47.9993,13.665 -23.9997,0 -45.5033,-6.49947 -64.5039,-19.4984 -19.1619,-12.9989 -32.1608,-30.3309 -39.1651,-51.6662 -7.16554,-21.4966 -10.6642,-61.1665 -10.6642,-119.164l0 -234.668 -137.001 0 0 518.997 127.003 0 0 -76.1637c45.4963,58.1657 102.666,87.1644 171.833,87.1644 30.3309,0 58.1657,-5.49686 83.3292,-16.3293 25.3318,-11.0007 44.3324,-24.834 57.1701,-41.6681 12.9989,-17.0024 21.9944,-36.1643 27.0005,-57.6679 5.16732,-21.4966 7.66335,-52.164 7.66335,-92.1635l0 -322.169z"
     id="path44" /></glyph>
   <glyph
   unicode="*"
   horiz-adv-x="389"
   id="glyph50"><path
     d="M31 585l22.3307 69c51.6693,-18.1654 89,-33.8346 112.504,-47.1654 -6.16535,58.6693 -9.50394,99.1654 -9.83465,121.165l71 0c-1,-32.1654 -4.66929,-72.3307 -11.3307,-120.669 33.4961,16.8346 71.8346,32.5039 115,46.6693l22.3307 -69c-41.1654,-13.6693 -81.4961,-22.8346 -121.165,-27.3307 19.8346,-17.1654 47.6693,-48 83.6693,-92.1654l-58.3386 -41.5039c-18.8346,25.6693 -41.1654,60.6693 -66.8346,104.835 -24.1654,-45.8346 -45.3307,-80.8346 -63.4961,-104.835l-57.3307 41.5039c37.4961,46.4961 64.4961,77.1654 80.6614,92.1654 -41.8346,8.16535 -81.4961,17.3307 -119.165,27.3307z"
     id="path48" /></glyph>
   <glyph
   unicode="h"
   horiz-adv-x="610"
   id="glyph54"><path
     d="M207.001 716l0 -265.335c44.5007,52.8371 97.8286,79.3328 159.668,79.3328 31.8313,0 60.5005,-5.8334 85.9935,-17.5002 25.5001,-11.8281 44.669,-26.664 57.6679,-44.9985 12.9989,-18.1663 21.8332,-38.3308 26.5027,-60.5005 4.83078,-22.1627 7.16554,-56.497 7.16554,-102.996l0 -304.003 -137.001 0 0 273.665c0,54.3375 -2.66429,88.8331 -7.83162,103.501 -5.3356,14.6676 -14.6676,26.3344 -28.0031,34.8321 -13.3285,8.66596 -29.9943,12.9989 -50.1658,12.9989 -22.997,0 -43.4981,-5.49686 -61.6643,-16.6658 -18.1663,-11.0007 -31.3335,-27.6666 -39.6699,-49.9975 -8.49769,-22.1697 -12.6624,-55.1649 -12.6624,-98.67l0 -259.663 -137.001 0 0 716 137.001 0z"
     id="path52" /></glyph>
   <glyph
   unicode="!"
   horiz-adv-x="332"
   id="glyph58"><path
     d="M124.999 184.001l-35.4959 363.831 0 168.164 147.997 0 0 -168.164 -34.9963 -363.831 -77.5045 0zm-29.5013 -184.001l0 136.997 137.007 0 0 -136.997 -137.007 0z"
     id="path56" /></glyph>
   <glyph
   unicode="e"
   horiz-adv-x="556"
   id="glyph62"><path
     d="M371.999 164.001l136.997 -22.9979c-17.4935,-50.1679 -45.3297,-88.3373 -83.166,-114.666 -37.9937,-26.1709 -85.4973,-39.335 -142.335,-39.335 -90.1598,0 -156.998,29.5013 -200.163,88.4946 -34.1638,47.3371 -51.3335,107.006 -51.3335,179.172 0,85.9968 22.4983,153.501 67.3377,202.161 44.8301,48.8358 101.659,73.1658 170.329,73.1658 77.0049,0 137.839,-25.4956 182.503,-76.4961 44.4971,-51.0005 65.8298,-129.171 63.8316,-234.502l-342.997 0c0.999103,-40.6672 11.9985,-72.3332 33.1647,-94.998 20.9997,-22.6648 47.3371,-33.9972 78.6701,-33.9972 21.4992,0 39.4923,5.8281 53.9978,17.4935 14.6628,11.6747 25.6621,30.5004 33.1647,56.5048zm8.00207 138.996c-0.999103,39.8346 -11.1659,70.1685 -30.6669,90.8351 -19.501,20.8331 -43.1649,31.1665 -71.1676,31.1665 -29.8343,0 -54.4973,-10.9994 -73.9984,-32.8316 -19.501,-21.8322 -29.0017,-51.6666 -28.6687,-89.1699l204.502 0z"
     id="path60" /></glyph>
   <glyph
   unicode="s"
   horiz-adv-x="556"
   id="glyph66"><path
     d="M22.9979 145.999l138.006 20.9997c5.8281,-26.4947 17.6601,-46.6618 35.6624,-60.3347 17.8358,-13.8302 42.9984,-20.6666 75.164,-20.6666 35.5051,0 62.1664,6.50342 80.1687,19.501 11.9985,9.16769 18.0023,21.4992 18.0023,36.8373 0,10.3333 -3.33034,19.0015 -9.83376,25.8287 -6.83645,6.50342 -22.1653,12.6738 -45.8385,18.1689 -110.826,24.4965 -180.995,46.8376 -210.663,67.0046 -41.1667,28.1599 -61.6668,67.1619 -61.6668,116.997 0,45.1631 17.8358,82.9995 53.3317,113.666 35.5051,30.6669 90.502,45.9957 165,45.9957 71.001,0 123.833,-11.6654 158.339,-34.8298 34.4968,-23.3309 58.3272,-57.6704 71.3341,-103.167l-129.005 -23.997c-5.50432,20.3336 -16.1707,35.9954 -31.666,46.8283 -15.5046,10.8329 -37.6699,16.1707 -66.5051,16.1707 -36.3285,0 -62.3329,-5.00476 -78.1613,-15.1716 -10.4998,-7.16024 -15.6711,-16.4944 -15.6711,-27.8269 0,-9.83376 4.50521,-18.1689 13.6729,-25.0053 12.498,-9.16769 55.3299,-21.9988 128.662,-38.669 73.3323,-16.661 124.499,-36.9946 153.501,-61.158 28.8352,-24.3393 43.1649,-58.503 43.1649,-102.167 0,-47.5036 -19.834,-88.5038 -59.6686,-122.668 -39.6588,-34.173 -98.4949,-51.3335 -176.499,-51.3335 -70.6588,0 -126.664,14.3297 -167.997,42.8319 -41.1667,28.5022 -68.1703,67.1619 -80.8348,116.164z"
     id="path64" /></glyph>
   <glyph
   unicode="b"
   horiz-adv-x="556"
   id="glyph70"><path
     d="M146.999 0l-82.0036 0 0 716.005 88.0036 0 0 -255.507c37.1691,46.3345 84.4957,69.5076 142.169,69.5076 31.8306,0 62.1612,-6.34249 90.6611,-19.1692 28.4999,-12.8385 51.8384,-31.0038 70.3344,-54.1651 18.3306,-23.3385 32.8345,-51.3423 43.1691,-84.1768 10.5,-32.6574 15.6732,-67.8304 15.6732,-105.165 0,-88.665 -22.0039,-157.334 -65.8344,-205.665 -44.0077,-48.4959 -96.6728,-72.6611 -158.173,-72.6611 -61.1691,0 -109.169,25.4999 -143.999,76.3343l0 -65.3383zm-1.00393 263.338c0,-62.0076 8.5039,-106.842 25.3345,-134.503 27.6731,-45.1652 65.0076,-67.8304 112.169,-67.8304 38.5038,0 71.669,16.6653 99.4957,49.9959 28.0038,33.3306 41.9998,82.9957 41.9998,148.995 0,67.6769 -13.3228,117.507 -40.1573,149.669 -26.8345,32.1731 -59.3383,48.3305 -97.3343,48.3305 -38.5038,0 -71.669,-16.6653 -99.5075,-49.9959 -27.992,-33.3306 -41.9998,-81.4957 -41.9998,-144.661z"
     id="path68" /></glyph>
   <glyph
   unicode=","
   horiz-adv-x="277"
   id="glyph74"><path
     d="M89 0l0 100 100 0 0 -100c0,-36.8346 -6.49606,-66.6693 -19.6693,-89.3307 -13,-22.6693 -33.8268,-40.3386 -62.3307,-52.6693l-24 38c18.6693,8.16535 32.3307,20.1654 41,35.8346 8.83465,15.8346 13.8346,38.4961 14.8346,68.1654l-49.8346 0z"
     id="path72" /></glyph>
   <glyph
   unicode="g"
   horiz-adv-x="610"
   id="glyph78"><path
     d="M59 -33.0022l156.997 -19.0006c2.6713,-18.4958 8.67297,-31.1652 18.005,-38.1625 13.1672,-9.83685 33.6612,-14.8359 61.6643,-14.8359 35.8347,0 62.667,5.3356 80.665,16.168 12.0033,7.16554 21.1671,18.6641 27.337,34.6638 4.16471,11.3373 6.3312,32.5044 6.3312,63.0035l0.666073 75.8342c-41.3316,-56.504 -93.3344,-84.6684 -156.001,-84.6684 -69.6642,0 -124.997,29.4965 -165.663,88.3353 -31.9996,46.4989 -47.9993,104.496 -47.9993,173.663 0,87.0032 20.9988,153.337 62.8282,199.17 41.8364,45.8328 94.0004,68.8299 156.338,68.8299 64.1674,0 117.166,-28.1644 158.834,-84.5001l0 73.4994 127.998 0 0 -465.333c0,-61.1665 -4.99905,-106.999 -15.1654,-137.162 -9.99811,-30.3379 -24.1679,-54.001 -42.5025,-71.3329 -18.1663,-17.1707 -42.5025,-30.8357 -73.0016,-40.5043 -30.4991,-9.82984 -68.9982,-14.6676 -115.497,-14.6676 -87.9988,0 -150.336,15.1724 -187.167,45.335 -36.8303,30.3309 -55.1649,68.5004 -55.1649,114.999 0,4.50125 0.16126,10.1664 0.497802,16.6658zm122.999 303c0,-54.9966 10.6642,-95.1643 31.8313,-120.664 21.3354,-25.5001 47.6698,-38.3308 78.835,-38.3308 33.3317,0 61.6714,13.1672 84.6684,39.3334 23.1653,26.1662 34.6638,64.8334 34.6638,116.163 0,53.6645 -11.0007,93.5026 -33.1634,119.501 -22.0014,25.9979 -49.9975,38.9968 -83.8341,38.9968 -32.8339,0 -59.8344,-12.8307 -81.1698,-38.3308 -21.1671,-25.5001 -31.8313,-64.3356 -31.8313,-116.668z"
     id="path76" /></glyph>
   <glyph
   unicode="u"
   horiz-adv-x="610"
   id="glyph82"><path
     d="M414.999 0l0 77.6641c-19.0006,-27.6666 -43.8346,-49.661 -74.6633,-66.1656 -30.8357,-16.3293 -63.333,-24.4975 -97.4991,-24.4975 -35.0004,0 -66.3339,7.66335 -94.0004,22.997 -27.8348,15.3337 -47.8381,36.9986 -60.1709,64.6652 -12.5011,27.8348 -18.6641,66.1726 -18.6641,115.168l0 329.166 137.001 0 0 -238.994c0,-73.1699 2.49602,-117.839 7.66335,-134.336 4.99905,-16.4976 14.1698,-29.6648 27.6666,-39.1651 13.3355,-9.66858 30.3379,-14.4994 51.0002,-14.4994 23.5019,0 44.5007,6.49947 63.1718,19.3301 18.6641,12.8377 31.3335,28.8375 38.1625,47.9993 6.83601,19.1689 10.3346,65.8361 10.3346,140.338l0 219.327 137.001 0 0 -518.997 -127.003 0z"
     id="path80" /></glyph>
   <glyph
   unicode=" "
   horiz-adv-x="277"
   id="glyph84" />
   <glyph
   unicode="r"
   horiz-adv-x="389"
   id="glyph88"><path
     d="M203.003 0l-137.007 0 0 518.997 127.006 0 0 -73.6653c21.8322,34.8391 41.4998,57.6704 58.9933,68.5033 17.5028,10.8329 37.3368,16.1614 59.5021,16.1614 31.333,0 61.5003,-8.65889 90.502,-25.8287l-42.4989 -119.67c-23.1644,15.005 -44.6636,22.4983 -64.4976,22.4983 -19.3345,0 -35.6717,-5.32855 -49.0023,-15.8284 -13.3306,-10.6663 -23.8304,-29.6678 -31.4995,-57.3374 -7.66904,-27.6603 -11.4989,-85.6638 -11.4989,-173.825l0 -160.004z"
     id="path86" /></glyph>
   <glyph
   unicode="a"
   horiz-adv-x="556"
   id="glyph92"><path
     d="M404.998 64.9958c-32.6692,-27.8267 -64.169,-47.3266 -94.3343,-58.8305 -30.1652,-11.5039 -62.4919,-17.1613 -97.1689,-17.1613 -56.9998,0 -100.83,13.8307 -131.492,41.6573 -30.6731,27.6731 -46.0038,63.1769 -46.0038,106.334 0,25.3345 5.83462,48.5077 17.3385,69.5076 11.6574,20.9999 26.8227,37.6652 45.4959,50.3266 18.8267,12.6732 39.8266,22.3346 63.3305,28.8424 17.3385,4.49998 43.4998,8.8228 78.3304,13.1574 71.0076,8.33855 123.507,18.5078 157.003,30.1652 0.330707,12 0.496061,19.6771 0.496061,22.8424 0,35.6573 -8.32674,60.8265 -24.992,75.4958 -22.4999,19.8306 -56.0077,29.6692 -100.334,29.6692 -41.5038,0 -72.1651,-7.33462 -91.8303,-21.8385 -19.8424,-14.4921 -34.3345,-40.1691 -43.8423,-77.1611l-85.9957 12c7.83068,36.8266 20.6692,66.6612 38.6691,89.3264 17.9999,22.6653 43.9959,40.0038 77.9997,52.3344 33.8266,12.1653 73.3344,18.3424 118.003,18.3424 44.3266,0 80.4918,-5.17321 108.33,-15.6732 27.6613,-10.5 48.1652,-23.5038 61.1691,-39.3306 12.9921,-15.8385 22.1574,-35.8345 27.496,-59.9998 2.83463,-14.9999 4.33463,-41.9998 4.33463,-80.8343l0 -116.669c0,-81.4957 1.8307,-133.003 5.4921,-154.83 3.50786,-21.8385 10.8425,-42.6731 21.5078,-62.669l-92.0075 0c-8.8228,18.496 -14.4921,40.1691 -16.996,64.9958zm-7.00391 194.999c-31.9959,-12.9921 -79.9957,-23.9999 -143.999,-32.9999 -36.3306,-5.1614 -61.9958,-10.996 -76.9958,-17.4921 -14.9999,-6.50785 -26.5038,-16.0039 -34.6652,-28.3345 -8.1732,-12.496 -12.3307,-26.3385 -12.3307,-41.6691 0,-23.1613 8.83461,-42.6612 26.6574,-58.1691 17.8346,-15.496 43.8423,-23.3267 78.0115,-23.3267 33.8266,0 63.9919,7.33462 90.4957,22.1574 26.3267,14.6692 45.8266,34.8424 58.1691,60.3423 9.49603,19.8306 14.1614,48.9919 14.1614,87.4957l0.496061 31.9959z"
     id="path90" /></glyph>
   <glyph
   unicode="o"
   horiz-adv-x="610"
   id="glyph96"><path
     d="M40.0011 265.835c0,45.6627 11.1659,89.8267 33.6642,132.501 22.4983,42.8319 54.3308,75.3305 95.4976,97.8288 41.1667,22.4983 87.0052,33.8307 137.839,33.8307 78.4943,0 142.668,-25.4956 192.827,-76.4961 50.1679,-51.167 75.1732,-115.498 75.1732,-193.502 0,-78.6608 -25.3384,-143.834 -75.8393,-195.5 -50.6582,-51.6666 -114.332,-77.4952 -191.162,-77.4952 -47.5036,0 -92.8333,10.8329 -135.998,32.3321 -42.9984,21.4992 -75.8393,52.9987 -98.3376,94.665 -22.4983,41.4998 -33.6642,92.1672 -33.6642,151.836zm141.003 -7.336c0,-51.5 12.165,-91.0016 36.495,-118.329 24.4965,-27.5031 54.4973,-41.1667 90.3355,-41.1667 35.6624,0 65.6632,13.6637 89.836,41.1667 24.1635,27.3273 36.3285,67.1619 36.3285,119.328 0,50.834 -12.165,90.0025 -36.3285,117.339 -24.1727,27.4938 -54.1736,41.1667 -89.836,41.1667 -35.8382,0 -65.839,-13.6729 -90.3355,-41.1667 -24.33,-27.3366 -36.495,-66.8381 -36.495,-118.338z"
     id="path94" /></glyph>
   <glyph
   unicode="l"
   horiz-adv-x="277"
   id="glyph100"><path
     d="M72.0001 0l0 715.996 136.997 0 0 -715.996 -136.997 0z"
     id="path98" /></glyph>
   <glyph
   unicode="9"
   horiz-adv-x="556"
   id="glyph104"><path
     d="M55 166l84 7c7.16535,-39.6693 20.8346,-68.3307 41,-86.1654 20.1654,-17.8346 46,-26.8346 77.6693,-26.8346 27,0 50.6614,6.16535 71.1654,18.6693 20.4961,12.3307 37.1654,28.8346 50,49.6614 12.8346,20.6693 23.6693,48.6693 32.4961,83.8346 8.83465,35.1654 13.1732,71 13.1732,107.504 0,3.83465 -0.173228,9.83465 -0.503937,17.6614 -17.4961,-28 -41.4961,-50.8268 -71.8346,-68.1654 -30.3307,-17.4961 -63.3307,-26.1654 -98.6614,-26.1654 -59.1732,0 -109.173,21.5039 -150.173,64.5039 -40.8268,42.8268 -61.3307,99.4961 -61.3307,169.827 0,72.6693 21.3307,131 64.1654,175.339 42.6693,44.1654 96.1654,66.3307 160.669,66.3307 46.3307,0 88.8346,-12.4961 127.496,-37.6693 38.5039,-25 67.6693,-60.6614 87.6693,-107.165 20,-46.3307 30,-113.496 30,-201.331 0,-91.5039 -9.83465,-164.331 -29.6693,-218.504 -19.8268,-54.3307 -49.4961,-95.4961 -88.6614,-123.827 -39.1654,-28.3386 -85,-42.5039 -137.669,-42.5039 -56,0 -101.669,15.5039 -137.165,46.6693 -35.3307,31.1654 -56.6693,75 -63.8346,131.331zm359 315.835c0,50.3307 -13.3307,90.3307 -40,119.835 -26.4961,29.4961 -58.8346,44.3307 -96.8346,44.3307 -39.3307,0 -73.3307,-15.8346 -102,-47.6693 -28.8346,-31.8268 -43.1654,-73.1654 -43.1654,-123.827 0,-45.5039 13.6693,-82.5039 40.8346,-110.835 27.3307,-28.5039 61.3307,-42.6693 101.835,-42.6693 40.6614,0 74,14.1654 100.165,42.6693 26.1654,28.3307 39.1654,67.8346 39.1654,118.165z"
     id="path102" /></glyph>
   <glyph
   unicode="z"
   horiz-adv-x="500"
   id="glyph108"><path
     d="M15.9998 0l0 108.002 194.164 222.496c32.0066,36.5008 55.5014,62.1692 70.8351,77.5029 -15.9998,-1.00262 -36.9986,-1.66869 -62.9965,-1.99822l-183.002 -1.00262 0 113.997 429 0 0 -96.9943 -198.167 -228.337 -69.8325 -75.6659c38.0012,1.99822 61.6643,3.00083 70.8351,3.00083l212.162 0 0 -121.001 -462.998 0z"
     id="path106" /></glyph>
   <glyph
   unicode="i"
   horiz-adv-x="277"
   id="glyph112"><path
     d="M72.0001 588.999l0 126.997 136.997 0 0 -126.997 -136.997 0zm0 -588.999l0 518.997 136.997 0 0 -518.997 -136.997 0z"
     id="path110" /></glyph>
  </font>
</defs>
</svg>
