<svg xmlns="http://www.w3.org/2000/svg" xmlns:xlink="http://www.w3.org/1999/xlink" xml:space="preserve" id="svg990" width="1260" height="411" style="shape-rendering:geometricPrecision;text-rendering:geometricPrecision;image-rendering:optimizeQuality;fill-rule:evenodd;clip-rule:evenodd" version="1.1"><defs id="defs425"><clipPath id="id7"><path id="path2" d="M68 171h29.223v29.266H68z"/></clipPath><clipPath id="id17"><path id="path5" d="M1132 57h49.126v48.992H1132z"/></clipPath><clipPath id="id16"><path id="path8" d="M1176 82h67.002v66.819H1176z"/></clipPath><clipPath id="id15"><path id="path11" d="M1170 10h68.65v68.462H1170z"/></clipPath><clipPath id="id0"><path id="path14" d="M22 1h1199v414H22V1z"/></clipPath><clipPath id="id1"><path id="path17" d="M53 319h88.302v88.06H53z"/></clipPath><clipPath id="id2"><path id="path20" d="M11 219h112v112H11z"/></clipPath><clipPath id="id3"><path id="path23" d="M88 196h58.408v58.248H88z"/></clipPath><clipPath id="id4"><path id="path26" d="M323 20h47.361v47.231H323z"/></clipPath><clipPath id="id5"><path id="path29" d="M672 12h47.361v47.231H672z"/></clipPath><clipPath id="id6"><path id="path32" d="M901 47h47.361v47.231H901z"/></clipPath><clipPath id="id14"><path id="path35" d="M1162 15h79v80h-79V15z"/></clipPath><clipPath id="id8"><path id="path38" d="M208 15h23.695v23.73H208z"/></clipPath><clipPath id="id9"><path id="path41" d="M557 42h23.695v23.73H557z"/></clipPath><clipPath id="id11"><path id="path47" d="M1046 5h23.695v23.73H1046z"/></clipPath><clipPath id="id12"><path id="path50" d="M1134 73h98.517v98.247H1134z"/></clipPath><clipPath id="id13"><path id="path53" d="M1166 218h49.126v48.992H1166z"/></clipPath><font id="FontID1" font-variant="normal" font-weight="700" horiz-adv-x="739" style="fill-rule:nonzero"><font-face id="font-face56" font-family="Century Gothic"/><missing-glyph id="missing-glyph60"><path id="path58" d="M0 0z"/></missing-glyph><glyph id="glyph64" horiz-adv-x="279" unicode="f"><path id="path62" d="M3.995 531.004H51c.334 69.491 1.496 110.495 3.34 123.162 3.66 29.167 15.832 52.335 36.662 69.33 21.003 17.008 50.504 25.506 88.664 25.506 27.67 0 58.668-6.333 93.339-19v-101.33c-19.173 5.492-34.832 8.325-47.177 8.325-15.499 0-26.829-3.166-33.99-9.66-5.171-4.837-7.843-15.004-7.843-30.17l-.495-66.163h84.495V417.998h-84V.001H50.999v417.997H3.995v113.006z"/></glyph><glyph id="glyph68" horiz-adv-x="299" unicode="t"><path id="path66" d="M82.998 726.996h133.008V531.004h78.991V416.006h-78.99V0H82.997v416.006H15.004v114.998h67.994v195.992z"/></glyph><glyph id="glyph72" horiz-adv-x="640" unicode="c"><path id="path70" d="m587 422.995-110.829-60.993c-20.842 21.832-41.338 36.836-61.674 45.333-20.335 8.498-44.158 12.667-71.494 12.667-49.837 0-90.173-14.831-120.836-44.332-30.837-29.674-46.163-67.5-46.163-113.835 0-45 14.831-81.662 44.332-110.174 29.662-28.5 68.501-42.662 116.668-42.662 59.496 0 105.832 20.335 139.168 61.006l104.83-72.002C524.004 23.997 443.665-13 339.837-13c-93.5 0-166.665 27.67-219.506 82.837-52.83 55.167-79.325 119.661-79.325 193.667 0 51.333 12.827 98.497 38.494 141.666 25.84 43.17 61.673 77.16 107.836 101.824 46.001 24.677 97.495 37.01 154.506 37.01 52.83 0 100.155-10.502 142.16-31.505 41.995-21.004 76.332-50.838 103-89.505z"/></glyph><glyph id="glyph76" horiz-adv-x="600" unicode="n"><path id="path74" d="M67.005 531.004H200v-54.672c30.169 25.332 57.666 42.835 82.17 52.829 24.49 9.834 49.662 14.843 75.329 14.843 52.668 0 97.495-18.331 134.17-55.006 30.836-31.332 46.335-77.494 46.335-138.5V0H405.998v232.173c0 63.33-2.832 105.325-8.497 125.994-5.666 20.83-15.672 36.662-29.675 47.498-14.162 10.836-31.665 16.34-52.322 16.34-27.002 0-50.17-9.005-69.503-27.002-19.334-17.998-32.668-43.009-40.164-74.674-3.834-16.662-5.838-52.496-5.838-107.663V0H67.004v531.004z"/></glyph><glyph id="glyph80" horiz-adv-x="440" unicode="L"><path id="path78" d="M80.995 718.004h136V130.002h201.002V0H80.995v718.004z"/></glyph><glyph id="glyph84" horiz-adv-x="600" unicode="h"><path id="path82" d="M67.994 736.001h133.008V476.665c26 22.5 52.001 39.334 78.335 50.504 26.162 11.17 52.83 16.835 79.659 16.835 52.508 0 96.84-18.17 132.834-54.673 30.837-31.492 46.175-77.828 46.175-138.834V0H407v232.494c0 61.34-2.833 103-8.671 124.671-5.826 21.832-15.833 37.999-29.996 48.834-14.002 10.663-31.505 16.006-52.174 16.006-26.829 0-49.997-9.004-69.33-26.841-19.16-17.824-32.494-42.167-40.002-72.992-3.823-16.006-5.826-52.334-5.826-109.172V0H67.994v736z"/></glyph><glyph id="glyph88" horiz-adv-x="899" unicode="W"><path id="path86" d="M27.497 718.004h133.836L265.495 259.67l128.171 458.334h113.167l130.67-458.334 104.001 458.334h133.997L712.498 0h-130.67L449.501 464.172 319.661 0H190.832L27.496 718.004z"/></glyph><glyph id="glyph92" horiz-adv-x="559" unicode="v"><path id="path90" d="M10.502 531.004h136.335L280.5 217.664l134.838 313.34h135.16L321.998 0h-85.002L10.501 531.004z"/></glyph><glyph id="glyph96" horiz-adv-x="640" unicode="e"><path id="path94" d="M598.503 228.004H170.994c6.172-37.838 22.673-68.007 49.341-90.507 26.669-22.326 60.833-33.496 102.171-33.496 49.663 0 92.164 17.503 127.825 52.496l111.67-52.83C534.171 64 500.661 34.671 461.834 15.5c-39-19-85.163-28.5-138.673-28.5-82.998 0-150.659 26.162-202.833 78.67-52.161 52.334-78.335 118.004-78.335 196.833 0 80.833 26.174 147.999 78.335 201.336 52.174 53.497 117.51 80.165 196.34 80.165 83.492 0 151.5-26.668 203.833-79.831 52.335-53.337 78.496-123.508 78.496-211.01l-.495-25.159zm-132.5 104.001c-8.832 28.994-26.173 52.656-52 70.827-26.001 18.17-55.997 27.163-90.334 27.163-37.17 0-69.664-10.168-97.842-30.664-17.49-12.666-33.83-35.166-48.821-67.326h288.997z"/></glyph><glyph id="glyph100" horiz-adv-x="660" unicode="g"><path id="path98" d="M461.006 531.004h131.993V76.665c0-89.665-18.17-155.668-54.326-197.835-48.5-57.159-121.677-85.83-219.506-85.83-52 0-95.838 6.505-131.5 19.506-35.5 13-65.495 32.16-89.838 57.492-24.491 25.172-42.662 55.835-54.326 92.003h147.492c13-14.83 29.835-26 50.504-33.669 20.496-7.496 44.839-11.33 73.004-11.33 35.995 0 64.828 5.504 86.66 16.5 22.005 10.997 37.343 25.16 46.335 42.502 9.005 17.502 13.508 47.498 13.508 90.16C437.504 42.662 412.839 25.667 387 15.499 361.173 5.17 332.006 0 299.338 0c-71.507 0-132.006 25.666-181.335 77-49.341 51.332-74.006 116.333-74.006 195.002 0 84.161 26.174 151.834 78.336 202.833 47.498 46.163 104 69.17 169.67 69.17 30.663 0 59.657-5.665 86.993-16.835 27.176-11.17 54.5-29.674 82.009-55.34v59.174zM321.504 419c-42.167 0-77-14.002-104.335-41.994-27.497-28.004-41.165-63.17-41.165-105.51 0-43.999 14.002-80.167 42.167-108.332 27.992-28.165 63.331-42.167 105.832-42.167 41.5 0 75.663 13.841 102.666 41.338 26.829 27.497 40.336 63.492 40.336 108.17 0 43.998-13.507 79.659-40.67 107.156C399.172 405.171 364.34 419 321.505 419z"/></glyph><glyph id="glyph102" horiz-adv-x="279"/><glyph id="glyph106" horiz-adv-x="600" unicode="u"><path id="path104" d="M67.005 531.004h134.999v-255.34c0-49.663 3.5-84.161 10.328-103.494 6.84-19.333 17.837-34.337 33.002-45.173 15.164-10.662 34.003-15.994 56.169-15.994 22.166 0 41.165 5.332 56.664 15.833 15.499 10.502 27.002 26 34.498 46.497 5.504 15.338 8.337 48.005 8.337 98.002v259.67h132.995V306.341c0-92.671-7.335-156.002-21.993-190.179-17.836-41.66-44.332-73.499-79.176-95.825C397.996-1.83 353.664-13 300.006-13c-58.334 0-105.337 13-141.345 39.001-35.995 26-61.327 62.168-75.997 108.665-10.502 32.173-15.66 90.667-15.66 175.496v220.842z"/></glyph><glyph id="glyph110" horiz-adv-x="660" unicode="a"><path id="path108" d="M460.004 531.004h132.995V0H460.004v56.503c-26-24.664-52.174-42.34-78.335-53.176C355.495-7.496 326.996-13 296.506-13c-68.835 0-128.171 26.495-178.341 79.67-50.17 52.991-75.169 118.994-75.169 197.836 0 81.823 24.343 148.828 72.844 201.163 48.5 52.161 107.328 78.335 176.659 78.335 31.999 0 61.834-6 89.838-17.837 27.992-11.837 53.831-29.834 77.667-53.497v58.334zM319.835 422.005c-41.338 0-75.663-14.51-102.839-43.676-27.324-28.994-40.992-66.325-40.992-111.831 0-45.829 13.829-83.493 41.66-113.167 27.831-29.501 62.008-44.332 102.666-44.332 41.833 0 76.665 14.497 104.175 43.664 27.658 29.006 41.5 67.165 41.5 114.342 0 46.162-13.842 83.493-41.5 112.165-27.51 28.499-62.502 42.835-104.669 42.835z"/></glyph><glyph id="glyph114" horiz-adv-x="319" unicode="r"><path id="path112" d="M35.995 531.004h115.01v-67.5c12.332 26.335 28.66 46.324 48.995 59.992 20.496 13.668 42.835 20.508 67.005 20.508 17.156 0 35.166-4.502 53.992-13.668L279.67 415.338c-15.499 7.83-28.338 11.664-38.333 11.664-20.335 0-37.677-12.666-51.667-37.998-14.175-25.333-21.176-75.008-21.176-149.001l.507-25.84V0H35.994v531.004z"/></glyph><glyph id="glyph118" horiz-adv-x="640" unicode="o"><path id="path116" d="M316.828 544.004c50.17 0 97.334-12.505 141.505-37.504 44.332-24.998 78.67-58.828 103.494-101.664 24.838-43.008 37.17-89.17 37.17-138.834 0-49.997-12.493-96.666-37.33-140.169-25-43.503-59.003-77.494-101.999-101.998C416.5-.669 369.162-13 317.334-13c-76.331 0-141.505 27.003-195.337 80.995C67.993 122.17 41.003 187.828 41.003 265c0 82.837 30.49 151.834 91.496 207 53.497 47.994 114.837 72.003 184.328 72.003zm2.004-125.005c-41.5 0-75.997-14.336-103.494-42.996-27.51-28.833-41.339-65.508-41.339-110.335 0-46.001 13.669-83.332 40.832-111.83 27.163-28.5 61.673-42.836 103.507-42.836 41.66 0 76.33 14.497 104.162 43.33 27.67 28.833 41.499 66.003 41.499 111.337 0 45.494-13.668 82.33-40.831 110.829-27.163 28.338-61.996 42.5-104.335 42.5z"/></glyph><glyph id="glyph122" horiz-adv-x="239" unicode="i"><path id="path120" d="M119.834 749.001c23.329 0 43.33-8.498 60.004-25.332 16.834-16.835 25.159-37.17 25.159-61.167 0-23.675-8.325-43.837-24.825-60.498-16.501-16.674-36.341-24.999-59.51-24.999-23.662 0-43.824 8.498-60.498 25.493-16.834 16.996-25.159 37.665-25.159 62.008 0 23.329 8.325 43.157 24.825 59.657 16.501 16.501 36.502 24.838 60.004 24.838zM53.002 531.004h132.995V0H53.002v531.004z"/></glyph></font><font id="FontID0" font-style="normal" font-variant="normal" font-weight="400,700" horiz-adv-x="683" style="fill-rule:nonzero"><font-face id="font-face125" font-family="Verdana"/><missing-glyph id="missing-glyph129"><path id="path127" d="M0 0z"/></missing-glyph><glyph id="glyph133" horiz-adv-x="351" unicode="f"><path id="path131" d="M383.008 670.993h-4.84c-10.164 3.017-23.325 6.176-39.665 9.334-16.34 3.18-30.675 4.678-43.006 4.678-39.504 0-67.992-8.829-85.83-26.343C191.99 641.168 183 609.5 183 563.66v-18.668h165.992V468.01H185.997V0H93.99v468.008h-62v76.982h62v18.182c0 64.996 16.178 114.825 48.351 149.652 32.316 34.847 78.987 52.18 139.994 52.18 20.491 0 38.998-1.013 55.5-2.998 16.34-1.842 31.505-4.17 45.173-6.843v-84.17z"/></glyph><glyph id="glyph137" horiz-adv-x="818" unicode="w"><path id="path135" d="M776.99 544.991 634.83 0h-85L409.492 420.163 270.167 0h-84.495L41.993 544.991h95.165l100.834-421.985 136.35 421.985h75.665L589.84 123.006l95.165 421.985h91.986z"/></glyph><glyph id="glyph141" horiz-adv-x="811" unicode="U"><path id="path139" d="M729.003 263.343c0-89.84-27.335-158.682-81.842-206.508-54.669-47.846-135.154-71.84-241.334-71.84-106.32 0-186.665 23.994-241.152 71.84-54.507 47.825-81.68 116.506-81.68 206.001v464.161h188.001V273.83c0-50.498 10.51-87.997 31.668-112.841 21.16-24.662 55.5-36.993 103.163-36.993 46.833 0 81.012 11.845 102.677 35.677 21.665 23.65 32.498 61.817 32.498 114.157v453.167h188V263.342z"/></glyph><glyph id="glyph145" horiz-adv-x="829" unicode="D"><path id="path143" d="M780.007 362.841c0-67.85-15.51-128.351-46.347-182.008-31-53.495-69.997-94.497-117.154-123.168-35.515-21.503-74.512-36.507-116.83-44.99C457.337 4.17 407.326-.002 349.336-.002H92.998v726.998h263.667c59.164 0 110.33-5.001 153.337-14.841 43.006-9.983 79.169-23.994 108.326-42.318 50.174-30.514 89.677-71.84 118.51-123.674 28.834-51.997 43.17-113.165 43.17-183.324zM585 364.501c0 47.664-8.666 88.504-25.998 122.5-17.332 33.995-44.667 60.5-82.328 79.675-19.013 9.314-38.511 15.833-58.516 19.154-19.823 3.503-49.83 5.163-90.002 5.163H281V136.996h47.157c44.343 0 76.84 2.005 97.514 6.176 20.835 3.989 41.002 11.318 60.824 22.15 33.835 19.338 58.84 45.518 74.674 78.178C577.002 275.998 585 316.493 585 364.5z"/></glyph><glyph id="glyph149" horiz-adv-x="711" unicode="3"><path id="path147" d="M589.657 340.508c16.016-13.667 28.67-29.683 38.167-47.846 9.517-18.162 14.174-42.338 14.174-72.67 0-34.157-6.824-65.987-20.33-95.488-13.504-29.663-34.177-55.013-62.16-76.172C532.173 27.84 500 12.169 463.007 1.337c-37.013-10.833-81.842-16.34-134.668-16.34-60.177 0-111.83 4.677-154.997 14.173C130.173 8.666 95.003 19.337 67.992 31v159.998h19.014c28.164-16.988 61.654-31.83 100.652-44.323 38.835-12.513 74.512-18.668 106.848-18.668 18.83 0 39.503 1.498 61.654 4.657 22.172 2.996 40.84 9.84 56.168 20.167 12.169 8.16 21.665 18 28.833 29.5 7.167 11.501 10.832 28.165 10.832 49.83 0 21.18-4.819 37.5-14.66 49-9.84 11.501-22.656 19.681-38.672 24.662-15.996 5.184-35.333 8.018-57.828 8.504-22.496.506-43.33.668-62.667.668h-40.172v130.011h41.832c25.512 0 48.17.83 67.85 2.49 19.661 1.5 36.325 5.346 50.154 11.178 14.336 6.155 25.169 14.335 32.336 24.5C437.334 493.338 441 508.342 441 528.002c0 14.66-3.827 26.323-11.339 35.333-7.492 8.828-16.988 15.834-28.327 21.159-12.837 5.831-27.84 9.678-45.173 11.663-17.332 1.842-32.153 2.834-44.666 2.834-30.655 0-63.983-5.163-99.984-15.651-35.839-10.509-70.685-25.675-104.337-45.335H89.01v157.994c26.666 10.832 62.99 21.159 108.994 31 45.82 10.002 92.492 15.003 139.67 15.003 46.003 0 86.154-4.01 120.657-12.007 34.502-7.998 63.01-18.669 85.506-31.992 26.667-15.996 46.672-35.332 59.67-58.172 13-22.657 19.5-49.506 19.5-79.999 0-40.496-12.514-76.496-37.682-108.326-24.986-31.668-58.152-51.996-99.154-60.683v-6.985c16.664-2.167 34.159-6.662 52.827-13.506 18.507-6.823 35.495-16.825 50.66-29.825z"/></glyph><glyph id="glyph153" horiz-adv-x="711" unicode="0"><path id="path151" d="M656.01 363.995c0-61.169-5.507-116-16.684-164.331-10.995-48.332-28.165-87.997-51.652-118.997C563.66 49.161 532.66 25.33 494.999 9.172c-37.66-16.178-84.17-24.176-139.508-24.176-54.325 0-100.652 8.18-138.98 24.5-38.35 16.178-69.512 40.334-93.181 72.163-24.156 32.012-41.488 71.678-52.159 119.017C60.34 247.996 54.993 302.34 54.993 363.51c0 63.153 5.508 117.984 16.664 164.655 11.015 46.51 28.51 85.83 52.685 118.166 23.994 31.83 55.155 55.844 93.667 71.678C256.338 734.003 302.159 742 355.492 742c55.681 0 102.333-8.16 140.014-24.662 37.66-16.502 68.66-41.002 92.654-73.5 23.832-31.85 41.002-71.17 51.672-118.003 10.833-46.672 16.178-100.672 16.178-161.841zm-189.014 0c0 87.997-8.666 150.664-25.836 188.001-17.15 37.337-45.66 56.005-85.669 56.005-39.99 0-68.498-18.668-85.648-56.005-17.17-37.337-25.836-100.328-25.836-188.993 0-86.337 8.828-148.68 26.322-186.827 17.514-38.167 45.841-57.18 85.162-57.18 39.342 0 67.669 19.013 85.183 57.18 17.494 38.147 26.322 100.814 26.322 187.819z"/></glyph><glyph id="glyph157" horiz-adv-x="632" unicode="ü"><path id="path155" d="M543.006 0H451v60.663c-31-24.5-60.663-43.169-89.01-56.168-28.488-13-59.65-19.499-93.99-19.499-57.342 0-102.171 17.494-134 52.503-31.992 34.826-48.008 86.175-48.008 153.843V544.99h92.006v-310.5c0-27.659 1.337-51.328 3.827-70.989 2.673-19.66 8.18-36.507 16.685-50.498 8.828-14.336 20.328-24.662 34.32-31.161 14.011-6.5 34.34-9.84 61.168-9.84 23.832 0 49.83 6.154 77.995 18.506 28.165 12.33 54.507 28.164 79.007 47.319V544.99h92.006V0zm-77.002 636.997h-97.008V732h97.007v-95.003zm-202.014 0h-96.987V732h96.988v-95.003z"/></glyph><glyph id="glyph161" horiz-adv-x="520" unicode="c"><path id="path159" d="M494.007 34.158C463.493 19.661 434.337 8.342 406.84.162c-27.334-8.16-56.674-12.169-87.511-12.169-39.321 0-75.504 5.831-108.326 17.332-32.842 11.501-61.007 29.015-84.332 52.503-23.832 23.346-42.176 53.009-55.175 88.847-13 35.657-19.5 77.489-19.5 125.334 0 89.151 24.5 159.148 73.5 209.828 48.838 50.822 113.51 76.173 193.833 76.173 31.162 0 61.837-4.354 92.007-13.182 30.007-8.666 57.665-19.498 82.671-32.153V410.99h-4.839c-28.003 21.503-56.835 38.005-86.66 49.668-29.846 11.5-58.84 17.332-87.167 17.332-51.997 0-93.18-17.494-123.168-52.32C162.003 390.822 147 339.494 147 272.007c0-65.501 14.66-116 44.16-151.17 29.501-35.17 70.847-52.846 124.18-52.846 18.669 0 37.5 2.348 56.654 7.167C391.168 80 408.5 86.336 423.666 93.99c13.343 6.845 25.998 14.012 37.661 21.504 11.683 7.512 20.997 14.011 27.841 19.499h4.84V34.158z"/></glyph><glyph id="glyph165" horiz-adv-x="394" unicode="t"><path id="path163" d="M373.006 4.657c-17.17-4.657-36-8.322-56.33-11.319-20.349-2.834-38.51-4.333-54.345-4.333-55.661 0-98 15.004-126.832 44.991C106.504 63.841 92.007 111.83 92.007 178v290.01H30.008v76.982h61.999v157.002h91.986V544.991h189.014V468.01H183.993V219.163c0-28.67.668-51.166 2.004-67.324 1.175-16.178 5.832-31.182 13.668-45.173 7.005-12.999 16.846-22.657 29.339-28.67 12.493-5.994 31.667-8.99 57.321-8.99 14.842 0 30.514 2.328 46.672 6.823 16.34 4.515 28.003 8.18 35.17 11.177h4.84V4.658z"/></glyph><glyph id="glyph169" horiz-adv-x="683" unicode="A"><path id="path167" d="M670.993 0H567.83l-70.989 201.992H181.825L110.998 0h-98l264.498 726.998h128.999L670.992 0zM466.328 286.001 339.334 641.836 211.833 286.001h254.495z"/></glyph><glyph id="glyph173" horiz-adv-x="607" unicode="ö"><path id="path171" d="M554.993 272.333c0-88.827-22.82-158.824-68.336-210.334-45.497-51.328-106.483-77.002-182.818-77.002-77.165 0-138.333 25.674-183.83 77.002-45.335 51.51-68.013 121.507-68.013 210.334 0 88.665 22.678 158.824 68.013 210.334 45.497 51.49 106.666 77.327 183.83 77.327 76.334 0 137.32-25.837 182.818-77.327 45.517-51.51 68.336-121.669 68.336-210.334zm-95.003 0c0 70.159-13.83 122.337-41.326 156.496-27.658 34.178-65.825 51.166-114.825 51.166-49.667 0-88.34-16.988-115.676-51.166C160.667 394.671 147 342.492 147 272.333c0-67.992 13.829-119.503 41.325-154.673 27.68-35.15 66.17-52.665 115.514-52.665 48.656 0 86.823 17.333 114.501 52.18 27.82 34.825 41.65 86.498 41.65 155.158zm-6.985 364.663h-97.008v95.003h97.008v-95.003zm-202.013 0h-96.987v95.003h96.987v-95.003z"/></glyph><glyph id="glyph177" horiz-adv-x="632" unicode="n"><path id="path175" d="M546.995 0h-91.986v310.501c0 25.006-1.518 48.494-4.333 70.503-3.017 21.99-8.342 39.16-16.178 51.49-8.16 13.667-20.005 23.832-35.332 30.514-15.328 6.661-35.17 10.002-59.67 10.002-24.987 0-51.33-6.175-78.664-18.506-27.496-12.331-53.656-28.165-78.824-47.34V0H90v544.991h92.007V484.33c28.65 23.831 58.334 42.338 88.989 55.681 30.675 13.323 62.16 19.985 94.496 19.985 59.003 0 104.013-17.656 135.013-53.171 31-35.495 46.49-86.499 46.49-153.155V0z"/></glyph><glyph id="glyph181" horiz-adv-x="591" unicode="k"><path id="path179" d="M585.993 0H464.506L244.999 238.175l-59.002-56.167V0H93.99v760h92.006V272.008L451.163 544.99H567L313.336 293.167 585.993 0z"/></glyph><glyph id="glyph185" horiz-adv-x="1128" unicode="W"><path id="path183" d="M1095.99 726.998 900.153 0H693.99L562.339 473.658 435.162 0H227.824L31.987 726.998h195.837l111.505-500.506 134.162 500.506H660.5l128.837-500.506 117.154 500.506h189.499z"/></glyph><glyph id="glyph189" horiz-adv-x="711" unicode="5"><path id="path187" d="M646.007 246.335c0-37.843-7.168-72.832-21.341-105.329C610.492 108.67 590 80.829 562.829 57.828 533.004 33.004 498.502 14.66 459.504 2.835c-38.835-11.825-83.34-17.838-133.17-17.838-58.334.344-107.658 5-147.83 14.011C138.172 7.998 105.492 18.001 80 28.995v161.011h20.673c29.663-17.676 61.655-32.498 95.995-44.343 34.34-11.824 68.499-17.656 102.495-17.656 20.511 0 42.845 2.329 66.838 7.168 24.176 4.657 43.169 13.16 57.16 25.654 11.177 10.164 19.499 20.329 25.35 30.837 5.65 10.509 8.484 26.667 8.484 48.494 0 17.008-3.827 31.506-11.5 43.837-7.654 12.168-17.657 22.009-29.664 29.5-17.656 10.833-38.997 18-63.821 21.342-25.006 3.503-47.501 5.163-67.85 5.163-29.32 0-57.666-2.51-84.657-7.33-27.01-5-50.66-9.84-70.827-14.68H107.01V727h518V587.998H283.004v-118.49c10.165.668 23.002 1.336 38.491 1.822 15.51.506 29.177.668 40.84.668 40.172 0 75.99-3.827 107.496-11.5 31.506-7.654 58.84-18.325 81.66-31.992 29.683-17.839 52.846-41.508 69.51-71.01 16.664-29.5 25.007-66.493 25.007-111.16z"/></glyph><glyph id="glyph193" horiz-adv-x="712" unicode="h"><path id="path191" d="M633.008 0H456.994v271.665c0 22.171-1.154 44.16-3.32 66.17-2.35 21.989-6.338 38.167-11.846 48.494-6.5 12.007-15.995 20.835-28.488 26.342-12.514 5.487-30.008 8.322-52.34 8.322-15.997 0-32.175-2.653-48.656-7.836-16.34-5.163-34.179-13.485-53.353-24.824V0H82.997v760.002H258.99V487.324c31.181 24.5 61.168 43.168 89.84 56.168 28.832 12.999 60.662 19.498 95.67 19.498 59.164 0 105.33-17.15 138.657-51.652 33.166-34.502 49.85-86.013 49.85-154.673V-.001z"/></glyph><glyph id="glyph197" horiz-adv-x="591" unicode="v"><path id="path195" d="M561.999 544.991 341.338 0H249.17L30.007 544.991h99.154l169.333-433.648 167.51 433.648h95.995z"/></glyph><glyph id="glyph201" horiz-adv-x="616" unicode="T"><path id="path199" d="M616.992 641.006H357.01V0h-97.007v641.006H0v85.993h616.992v-85.993z"/></glyph><glyph id="glyph205" horiz-adv-x="711" unicode="2"><path id="path203" d="M660.991 0H90.002v120.009c43.675 31.668 87.329 65.157 131.003 100.834 43.837 35.495 78.825 66.15 105.167 91.986 39.321 38.167 67.324 71.333 83.988 99.842 16.502 28.327 24.844 56.33 24.844 84.17 0 33.166-10.67 58.82-32.012 76.983-21.32 18.182-51.996 27.172-91.986 27.172-29.845 0-61.33-6.155-94.334-18.486-33.004-12.513-63.68-28.347-92.007-47.502h-15.671v161.66c23.163 10.002 57.18 20.166 102.333 30.169 45.01 10.164 90.163 15.165 135.499 15.165 91.014 0 160.505-19.174 208.35-57.503 47.825-38.33 71.819-92.493 71.819-162.49 0-46.003-11.501-89.677-34.32-131.185-23.002-41.326-58.172-84.15-105.35-128.15-29.5-27.334-59.326-52.502-89.333-75.504-29.825-23.001-51.166-38.997-63.82-48.17h326.82V0z"/></glyph><glyph id="glyph209" horiz-adv-x="595" unicode="e"><path id="path207" d="M546.995 262.999h-402c0-33.328 5.001-62.505 15.166-87.329 10.002-24.844 23.831-45.173 41.508-61.007 16.826-15.49 36.992-27.172 60.156-34.988 23.346-7.836 49-11.683 77.002-11.683 37.013 0 74.33 7.35 112.011 22.172 37.5 14.841 64.328 29.5 80.324 43.836H536V33.834c-30.838-12.999-62.505-23.832-94.659-32.66-32.173-8.848-66.008-13.181-101.502-13.181-90.345 0-161.01 24.5-211.67 73.338-50.843 48.838-76.173 118.328-76.173 208.33 0 89.01 24.338 159.674 73.014 211.833 48.655 52.34 112.659 78.5 191.99 78.5 73.661 0 130.335-21.503 170.163-64.327 39.827-43.006 59.832-103.83 59.832-182.838V263zm-88.99 69.997c-.343 48.007-12.512 85.162-36.506 111.505-23.832 26.342-60.339 39.503-109.156 39.503-49.344 0-88.503-14.497-117.68-43.33-29.157-29.015-45.659-64.834-49.668-107.678h313.011z"/></glyph><glyph id="glyph213" horiz-adv-x="623" unicode="b"><path id="path211" d="M571.009 276.666c0-45.497-6.5-86.499-19.337-122.823-12.837-36.507-30.169-67-52.178-91.844C476.33 36.325 451 17.17 423.159 4.333c-27.658-12.837-58.151-19.337-91.5-19.337-31 0-57.99 3.665-81.153 10.995-23.163 7.35-46.003 17.17-68.498 29.501L176.176 0H90.001v760.002h92.007V487.831c25.816 21.159 53.15 38.511 82.165 51.996 28.995 13.506 61.655 20.167 97.818 20.167 64.671 0 115.676-24.662 153.013-74.168 37.337-49.323 56.005-119.159 56.005-209.16zm-95.003-2.005c0 64.996-10.832 114.34-32.336 147.83-21.503 33.672-56.167 50.518-104.175 50.518-26.666 0-53.818-5.852-81.153-17.353-27.334-11.48-52.847-26.322-76.334-44.484v-312c26.16-11.682 48.493-19.842 67.324-24.337 18.668-4.495 40.01-6.844 63.841-6.844 50.822 0 90.67 16.684 119.503 50.012s43.33 85.487 43.33 156.657z"/></glyph><glyph id="glyph217" horiz-adv-x="520" unicode="s"><path id="path215" d="M479.995 158.176c0-49.668-20.49-90.508-61.655-122.337-41.163-31.83-97.331-47.846-168.664-47.846-40.333 0-77.346 4.84-111.019 14.336-33.652 9.678-61.816 20.167-84.656 31.667v103.001h4.84c28.832-21.989 60.986-39.503 96.318-52.502 35.333-13 69.167-19.499 101.502-19.499 40.172 0 71.678 6.5 94.335 19.681 22.678 13 33.996 33.652 33.996 61.817 0 21.503-6.155 37.68-18.486 48.675-12.331 11.157-36 20.491-71.01 28.327-12.999 2.997-29.986 6.338-50.822 10.347-21.017 3.827-40.01 7.998-57.341 12.655-47.664 12.675-81.498 31.161-101.34 55.843-19.985 24.5-29.987 54.67-29.987 90.326 0 22.495 4.657 43.674 13.99 63.497 9.173 19.843 23.347 37.499 42.339 53.17 18.162 15.166 41.326 27.335 69.673 36.325 28.165 8.849 59.65 13.344 94.496 13.344 32.66 0 65.664-4.01 99.154-12.007 33.348-7.836 61.169-17.494 83.34-28.995v-98h-4.84c-23.487 17.332-51.834 31.992-85.323 43.999-33.51 12.007-66.332 18-98.506 18-33.328 0-61.655-6.5-84.656-19.337-23.164-12.999-34.665-32.153-34.665-57.827 0-22.334 6.986-39.342 20.997-50.66 13.485-11.34 35.657-20.674 66.17-27.841 16.826-3.827 35.657-7.674 56.654-11.663 20.835-3.847 38.329-7.512 52.34-10.67 42.5-9.841 75.16-26.505 98.324-50.175 23.001-24.156 34.502-55.985 34.502-95.65z"/></glyph><glyph id="glyph221" horiz-adv-x="623" unicode="p"><path id="path219" d="M571.009 278.833c0-44.16-6.338-84.656-19.175-121.163-12.675-36.669-30.493-67.668-53.677-92.998-21.665-24.176-46.995-42.662-76.152-55.844-29.177-13.16-60.176-19.822-92.674-19.822-28.489 0-54.163 3.158-77.165 9.334-23.001 6.155-46.327 15.651-70.158 28.65V-201H90v745.99h92.007v-57.16c24.5 20.512 51.996 37.662 82.49 51.511 30.493 13.83 63.01 20.653 97.493 20.653 66.008 0 117.336-24.824 154.005-74.492 36.668-49.506 55.013-118.51 55.013-206.67zm-95.003-2.005c0 65.846-11.177 114.846-33.672 147.343-22.495 32.498-57.16 48.838-103.83 48.838-26.343 0-53.01-5.67-79.676-17.008-26.828-11.5-52.32-26.342-76.82-45.01v-308.66c26.16-11.825 48.493-19.822 67.324-23.994C268 74.167 289.342 72 313.173 72c51.166 0 91.156 17.17 119.827 51.672 28.67 34.503 43.006 85.487 43.006 153.155z"/></glyph><glyph id="glyph225" horiz-adv-x="363" unicode=","><path id="path223" d="M280.999 139.001 143.334-180.996H72.001l85 319.997H281z"/></glyph><glyph id="glyph229" horiz-adv-x="692" unicode="K"><path id="path227" d="M682.008 0H556.674L269.843 323.662l-72.852-77.165V0h-96.987v727h96.987V348.506l352.515 378.493h117.498L342.998 385.174 682.008 0z"/></glyph><glyph id="glyph233" horiz-adv-x="600" unicode="ä"><path id="path231" d="M515.004 0h-92.006v58.334c-8.16-5.507-18.993-13.343-32.822-23.163-13.85-10.003-27.173-17.839-40.172-23.832-15.327-7.512-32.842-13.667-52.664-18.83-19.681-5.002-43.007-7.513-69.511-7.513-49 0-90.67 16.34-124.666 48.838-34.158 32.66-51.166 74.168-51.166 124.666 0 41.508 8.828 74.998 26.504 100.49 17.656 25.674 43.006 45.841 75.828 60.5 33.004 14.68 72.832 24.5 119.18 29.846 46.488 5.163 96.318 8.99 149.49 11.663v14.335c0 20.835-3.666 38.33-10.995 51.997-7.33 13.829-17.677 24.662-31.344 32.497-13 7.512-28.65 12.676-46.833 15.166-18.162 2.673-37.155 4.01-56.998 4.01-23.994 0-50.822-3.18-80.323-9.68-29.663-6.499-60.177-15.995-91.662-28.326h-4.84v93.16c17.84 4.84 43.837 10.185 77.671 16.016 33.835 5.832 67.163 8.828 99.984 8.828 38.512 0 71.84-3.179 100.348-9.496 28.489-6.337 53.15-17.17 73.986-32.498 20.511-15.003 36.183-34.34 46.833-58.172 10.833-23.831 16.178-53.333 16.178-88.503V0zm-92.006 134.324v152.669c-27.841-1.66-60.663-4.15-98.324-7.33-37.843-3.32-67.668-7.998-89.677-14.335-26.323-7.492-47.502-19.155-63.66-34.989C155.16 214.506 147 192.496 147 164.838c0-31.506 9.334-55.176 28.164-71.01 18.83-15.833 47.502-23.831 85.993-23.831 32.174 0 61.35 6.337 88.017 18.83 26.484 12.675 51.166 27.841 73.824 45.497zm30.007 502.673h-97.007V732h97.007v-95.003zm-202.013 0h-96.987V732h96.987v-95.003z"/></glyph><glyph id="glyph237" horiz-adv-x="1058" unicode="m"><path id="path235" d="M618.004 388.333V0H441.99v273.67c0 26.666-.648 49.324-1.984 67.992-1.337 18.83-4.84 33.996-10.67 45.68-5.994 11.662-14.843 20.328-26.667 25.653-12.007 5.346-28.671 7.998-50.174 7.998-17.332 0-34.158-3.503-50.498-10.488-16.32-7.006-31-14.336-43.999-22.172V0H82.004v548.008h175.994v-60.682c30.331 23.831 59.164 42.338 86.843 55.681 27.659 13.323 58.152 19.985 91.662 19.985 36.163 0 67.992-7.998 95.67-24.156 27.66-15.996 49.325-39.666 64.996-71.01 34.989 29.684 69.167 52.848 102.333 69.836 33.166 16.846 65.664 25.33 97.494 25.33 59.164 0 104.175-17.657 134.83-53.151 30.837-35.515 46.165-86.499 46.165-153.175V0H801.997v273.67c0 26.99-.506 49.83-1.66 68.336-1.175 18.487-4.678 33.652-10.51 45.335-5.668 11.663-14.335 20.33-26.483 25.654-12.007 5.346-29.015 7.998-50.843 7.998-14.659 0-29.177-2.49-43.168-7.492-13.991-5.163-31.161-13.505-51.328-25.168z"/></glyph><glyph id="glyph241" horiz-adv-x="683" unicode="V"><path id="path239" d="M670.993 726.998 406.496 0H277.497L13 726.998h103.163L344.174 87.997l227.829 639.001h98.992z"/></glyph><glyph id="glyph245" horiz-adv-x="632" unicode="E"><path id="path243" d="M575.99 0H97.999v726.998H575.99v-85.993H195.007V441.99H575.99v-85.992H195.007V85.992H575.99V0z"/></glyph><glyph id="glyph249" horiz-adv-x="711" unicode="4"><path id="path247" d="M670.993 167.004h-98.992V-2.005h-179.01v169.009H41.001v137.827l340.326 422.167h190.674V299.991h98.992V167.003zM392.99 299.992v263.85l-211.995-263.85H392.99z"/></glyph><glyph id="glyph253" horiz-adv-x="623" unicode="g"><path id="path251" d="M533.004 62.16c0-92.33-20.997-159.997-63.173-203.328-42.156-43.169-106.828-64.834-194.34-64.834-28.994 0-57.32 2.005-85 6.176-27.496 3.989-54.649 9.82-81.497 17.15v93.666h4.84c15.003-5.649 38.834-12.817 71.494-21.32 32.68-8.505 65.34-12.676 98-12.676 31.343 0 57.342 3.665 77.832 11.177 20.512 7.492 36.507 17.838 48.008 31 11.5 12.654 19.66 27.82 24.5 45.658 4.84 17.677 7.33 37.661 7.33 59.67v49.324c-27.659-21.989-54.163-38.49-79.493-49.485C336.175 13.505 304 7.998 264.84 7.998c-65.177 0-117.012 23.507-155.34 70.503-38.33 46.995-57.504 113.327-57.504 198.834 0 46.995 6.661 87.328 19.843 121.325 13.16 34.016 31.16 63.335 54 88.179 21.322 23.001 46.996 41.002 77.327 53.819 30.331 12.837 60.5 19.336 90.508 19.336 31.667 0 58.152-3.158 79.493-9.496 21.503-6.338 43.998-15.996 67.83-28.995l5.831 23.488h86.175V62.16zm-92.006 87.35v296.833c-24.5 10.995-47.157 18.83-68.175 23.65-21.159 4.677-41.994 7.005-62.99 7.005-50.499 0-90.326-16.826-119.342-50.66C161.496 392.504 147 343.504 147 279.156c0-61.148 10.833-107.314 32.336-138.819 21.503-31.505 57.16-47.34 107.172-47.34 26.666 0 53.495 5.164 80.323 15.328 27.01 10.347 51.672 24.014 74.168 41.184z"/></glyph><glyph id="glyph257" horiz-adv-x="711" unicode="1"><path id="path255" d="M615.008 0H129.991v126.994h153.013v384H129.991v118.997c23.346 0 45.841 1.336 67.344 4.171 21.342 2.673 39.16 7.512 53.495 14.336 17.008 8.16 29.663 18.668 38.005 31.667 8.504 13 13.323 29.34 14.66 48.838h161.497v-602.01l150.016.001V0z"/></glyph><glyph id="glyph261" horiz-adv-x="623" unicode="d"><path id="path259" d="M533.004 0h-92.006v57.16c-26.505-22.658-54.001-40.496-82.672-53.151-28.65-12.675-59.832-19.013-93.484-19.013-65.178 0-117.012 25.006-155.341 75.18-38.33 49.992-57.504 119.483-57.504 208.149 0 46.185 6.661 87.349 19.843 123.35 13.16 36.162 31 66.817 53.495 92.33 22.171 24.661 48.17 43.492 77.67 56.491 29.501 13 59.995 19.499 91.662 19.499 28.671 0 54.163-2.997 76.335-8.99 22.17-6.014 45.496-15.328 69.996-28.003v237.001h92.006V.001zm-92.006 133.838v311.999c-24.824 10.995-46.995 18.669-66.494 22.84-19.66 4.15-41.002 6.317-64.166 6.317-51.51 0-91.661-17.818-120.333-53.495C161.335 385.843 147 335.162 147 269.66c0-64.651 11.177-113.65 33.328-147.323 22.171-33.51 57.666-50.336 106.504-50.336 26.16 0 52.665 5.831 79.331 17.332 26.666 11.5 51.672 26.343 74.836 44.505z"/></glyph><glyph id="glyph265" horiz-adv-x="632" unicode="u"><path id="path263" d="M543.006 0H451v60.663c-31-24.5-60.663-43.169-89.01-56.168-28.488-13-59.65-19.499-93.99-19.499-57.342 0-102.171 17.494-134 52.503-31.992 34.826-48.008 86.175-48.008 153.843V544.99h92.006v-310.5c0-27.659 1.337-51.328 3.827-70.989 2.673-19.66 8.18-36.507 16.685-50.498 8.828-14.336 20.328-24.662 34.32-31.161 14.011-6.5 34.34-9.84 61.168-9.84 23.832 0 49.83 6.154 77.995 18.506 28.165 12.33 54.507 28.164 79.007 47.319V544.99h92.006V0z"/></glyph><glyph id="glyph269" horiz-adv-x="685" unicode="B"><path id="path267" d="M646.999 223.84c0-36.183-6.824-68.174-20.49-95.833-13.668-27.679-32.175-50.498-55.338-68.336-27.335-21.504-57.342-36.831-90.164-46.003C448.327 4.495 406.657 0 356.16 0H98v726.998h215.66c53.171 0 92.837-2.004 119.341-5.831 26.343-4.01 51.673-12.007 75.666-24.338 26.829-13.991 46.166-31.992 58.172-54.001 12.17-21.827 18.163-48.17 18.163-78.663 0-34.34-8.828-63.66-26.343-87.997-17.656-24.176-41.163-43.675-70.482-58.334v-4.009c49.161-9.982 87.997-31.668 116.324-64.651 28.326-33.166 42.5-74.836 42.5-125.334zM484.004 550.66c0 17.332-2.997 32.012-8.828 43.998-5.852 11.845-15.186 21.504-28.347 29.016-15.166 8.666-33.834 14.153-55.661 16.157-21.666 2.167-48.676 3.16-80.992 3.16h-115.17V435.003h124.99c30.17 0 54.346 1.498 72.164 4.657 18 2.997 34.502 9.334 49.83 19.013 15.347 9.658 26.18 22.15 32.518 37.499 6.317 15.327 9.496 33.49 9.496 54.487zm61.999-330.161c0 28.995-4.333 52.158-13.161 69.329-8.848 17.17-24.682 31.83-47.846 43.674-15.672 8.16-34.664 13.505-56.835 15.834-22.334 2.49-49.486 3.665-81.336 3.665H195.007V84.009h127.825c42.338 0 77.003 2.166 103.993 6.5 27.01 4.494 49.182 12.492 66.514 24.155 18.162 12.513 31.486 27.01 39.99 43.169 8.504 16.178 12.675 36.992 12.675 62.667z"/></glyph><glyph id="glyph271" horiz-adv-x="351"/><glyph id="glyph275" horiz-adv-x="603" unicode="P"><path id="path273" d="M572.993 507.33c0-32.336-5.67-62.16-16.826-89.657-11.177-27.497-26.828-51.349-46.995-71.516-25.006-24.986-54.507-43.816-88.665-56.33-34.017-12.492-77.165-18.83-129-18.83h-96.5V0H97.998v726.998H294.99c43.675 0 80.505-3.665 110.675-10.994 30.331-7.33 57.16-18.83 80.505-34.34 27.659-18.67 49-41.67 64.166-69.33 15.165-27.658 22.657-62.666 22.657-105.004zm-100.996-2.329c0 24.824-4.333 46.49-13.161 64.834-8.666 18.507-22.01 33.49-39.828 45.173-15.51 10.002-33.348 17.15-53.17 21.483-20.005 4.333-45.173 6.5-75.505 6.5h-95.326V355.006h81.153c38.835 0 70.503 3.502 94.679 10.326 24.317 7.006 44.16 18 59.326 33.166 15.328 15.51 25.998 31.83 32.336 49 6.337 17.008 9.496 36.345 9.496 57.504z"/></glyph><glyph id="glyph279" horiz-adv-x="600" unicode="a"><path id="path277" d="M515.004 0h-92.006v58.334c-8.16-5.507-18.993-13.343-32.822-23.163-13.85-10.003-27.173-17.839-40.172-23.832-15.327-7.512-32.842-13.667-52.664-18.83-19.681-5.002-43.007-7.513-69.511-7.513-49 0-90.67 16.34-124.666 48.838-34.158 32.66-51.166 74.168-51.166 124.666 0 41.508 8.828 74.998 26.504 100.49 17.656 25.674 43.006 45.841 75.828 60.5 33.004 14.68 72.832 24.5 119.18 29.846 46.488 5.163 96.318 8.99 149.49 11.663v14.335c0 20.835-3.666 38.33-10.995 51.997-7.33 13.829-17.677 24.662-31.344 32.497-13 7.512-28.65 12.676-46.833 15.166-18.162 2.673-37.155 4.01-56.998 4.01-23.994 0-50.822-3.18-80.323-9.68-29.663-6.499-60.177-15.995-91.662-28.326h-4.84v93.16c17.84 4.84 43.837 10.185 77.671 16.016 33.835 5.832 67.163 8.828 99.984 8.828 38.512 0 71.84-3.179 100.348-9.496 28.489-6.337 53.15-17.17 73.986-32.498 20.511-15.003 36.183-34.34 46.833-58.172 10.833-23.831 16.178-53.333 16.178-88.503V0zm-92.006 134.324v152.669c-27.841-1.66-60.663-4.15-98.324-7.33-37.843-3.32-67.668-7.998-89.677-14.335-26.323-7.492-47.502-19.155-63.66-34.989C155.16 214.506 147 192.496 147 164.838c0-31.506 9.334-55.176 28.164-71.01 18.83-15.833 47.502-23.831 85.993-23.831 32.174 0 61.35 6.337 88.017 18.83 26.484 12.675 51.166 27.841 73.824 45.497z"/></glyph><glyph id="glyph283" horiz-adv-x="497" unicode="r"><path id="path281" d="M479.995 379.991h-15.49c-7.512 2.673-19.498 4.677-36.162 6.014-16.502 1.336-30.352 2.004-41.346 2.004-25.006 0-46.995-1.68-66.17-4.84-19.155-3.34-39.828-8.827-61.837-16.663V0H82.996v548.008H258.99v-80.505c38.673 33.166 72.183 55.155 100.834 66.17 28.509 10.832 54.851 16.32 78.845 16.32 6.155 0 13.161-.163 20.835-.487 7.836-.344 14.66-.83 20.49-1.498V379.99z"/></glyph><glyph id="glyph287" horiz-adv-x="361" unicode="."><path id="path285" d="M272.009 0h-183v191.99h183V0z"/></glyph><glyph id="glyph291" horiz-adv-x="607" unicode="o"><path id="path289" d="M554.993 272.333c0-88.827-22.82-158.824-68.336-210.334-45.497-51.328-106.483-77.002-182.818-77.002-77.165 0-138.333 25.674-183.83 77.002-45.335 51.51-68.013 121.507-68.013 210.334 0 88.665 22.678 158.824 68.013 210.334 45.497 51.49 106.666 77.327 183.83 77.327 76.334 0 137.32-25.837 182.818-77.327 45.517-51.51 68.336-121.669 68.336-210.334zm-95.003 0c0 70.159-13.83 122.337-41.326 156.496-27.658 34.178-65.825 51.166-114.825 51.166-49.667 0-88.34-16.988-115.676-51.166C160.667 394.671 147 342.492 147 272.333c0-67.992 13.829-119.503 41.325-154.673 27.68-35.15 66.17-52.665 115.514-52.665 48.656 0 86.823 17.333 114.501 52.18 27.82 34.825 41.65 86.498 41.65 155.158z"/></glyph><glyph id="glyph295" horiz-adv-x="274" unicode="l"><path id="path293" d="M182.008 0H90.002v760.002h92.006V0z"/></glyph><glyph id="glyph299" horiz-adv-x="711" unicode="6"><path id="path297" d="M659.998 247.995c0-37.499-6.824-72.67-20.49-105.653-13.668-32.842-32.843-60.5-57.667-83.016-26.342-24.156-56.835-42.5-91.682-55.317C455.495-8.666 415-15.004 368.33-15.004c-43.655 0-83.503 6.014-119.32 17.838-36.001 11.825-67 30.008-92.675 54.508-29.663 27.982-52.34 64.165-67.83 108.326-15.672 44.322-23.508 97.169-23.508 158.824 0 63.679 7.33 120.333 22.01 169.839 14.659 49.506 38.49 93.342 71.657 131.51 32.011 36.324 73.337 64.65 124.342 84.818 50.822 20.167 111.505 30.351 181.826 30.351 23.67 0 49.667-1.68 77.994-4.839 28.347-3.34 46.671-5.67 55.175-7.33V585.993h-18.506c-8.828 4.171-23.67 8.849-44.667 14.174-20.835 5.163-44.666 7.836-71.333 7.836-62.323 0-110.999-15.328-145.663-45.841-34.826-30.494-55.661-72.994-62.829-127.501 25.006 15.003 51.49 27.172 79.331 36.345 27.659 9.334 57.828 13.99 90.002 13.99 28.327 0 54.507-3.32 78.825-9.82 24.175-6.499 46.67-16.846 67.506-31.181 27.01-18.993 48.676-44.323 64.995-76.334C651.84 335.83 660 295.84 660 247.996zM437.839 138.333c10.164 10.995 18.162 24.176 24.156 39.342 6.013 14.983 9.01 35.656 9.01 61.654 0 23.832-3.34 43.169-10.164 58.334-6.844 15.166-16.34 27.335-28.347 36.345-11.663 9.152-25.492 15.49-41.488 18.83-15.834 3.503-32.336 5.164-49.182 5.164-14.315 0-29.32-1.66-44.99-4.84-15.51-3.32-29.826-7.33-42.825-12.33 0-3.159-.182-8.504-.506-15.996-.345-7.512-.507-17.008-.507-28.327 0-40.01 4.01-73.014 12.007-98.85 7.836-25.998 18.487-45.659 31.83-59.326 9.172-10.164 19.843-17.494 32.174-22.333 12.493-4.657 25.836-7.006 39.99-7.006 10.832 0 22.677 2.51 35.676 7.33 13 4.839 23.994 12.169 33.166 22.009z"/></glyph><glyph id="glyph303" horiz-adv-x="775" unicode="G"><path id="path301" d="M703.997 52.827C664.331 34.664 620.839 18.83 573.824 5.325 526.829-8.16 481.332-15.004 437.333-15.004c-56.674 0-108.508 7.836-155.665 23.508-47.34 15.672-87.49 38.997-120.677 70.32-33.49 31.668-59.488 71.172-77.65 118.512-18.183 47.34-27.335 102.839-27.335 166.336 0 116.324 33.996 208.168 101.826 275.492 67.992 67.162 161.173 100.834 279.825 100.834 41.346 0 83.684-5.001 126.853-14.822 43.148-10.002 89.657-26.848 139.487-50.518V559.995h-8.828c-10.002 7.674-24.662 17.838-43.837 30.17-19.336 12.513-38.167 23-56.673 31.343-22.496 9.82-47.988 18.162-76.497 24.662-28.488 6.5-60.824 9.84-96.987 9.84-81.335 0-145.683-26.018-193.185-78.177-47.319-52.158-70.989-122.66-70.989-211.67 0-93.829 24.662-166.823 74.168-219.002C280.493 95.003 347.837 69.005 433 69.005c31.162 0 62.343 2.997 93.343 9.152 30.999 6.175 58.334 14.173 81.66 23.852v176.986h-195.01v86.013h291.002V52.827z"/></glyph><glyph id="glyph307" horiz-adv-x="596" unicode="z"><path id="path305" d="M556.006 0H41.002v113.003l287.499 306.998H53.009v128.007h497.995V437.495l-284.34-306.491h289.342V.001z"/></glyph><glyph id="glyph311" horiz-adv-x="274" unicode="i"><path id="path309" d="M188.001 636.997H84.008V732h103.993v-95.003zM182.008 0H90v544.991h92.007V0z"/></glyph></font><font id="FontID2" font-style="italic" font-variant="normal" font-weight="400" horiz-adv-x="620" style="fill-rule:nonzero"><font-face id="font-face314" font-family="ITC Zapf Chancery"/><missing-glyph id="missing-glyph318"><path id="path316" d="M0 0z"/></missing-glyph><glyph id="glyph322" horiz-adv-x="680" unicode="w"><path id="path320" d="M783 422.169c0-83.004-40.165-176.333-120.67-279.834C582.164 38.834 511.165-12.999 449.663-12.999c-40.165 0-60.16 22.495-60.16 67.495 0 10.838 1.997 24.667 5.828 41.67 4.835 17.671 7.334 28.17 7.334 31.838-63.663-64.668-107.834-104.341-132.163-119-24.164-14.669-45.338-22.003-63.5-22.003-40.667 0-61 26.5-61 79.5 0 40.995 10.663 82.994 32.165 125.996 21.829 42.839 62.004 98.339 120.495 166.335v.164h-84.664c-27.33 0-44.836-3.165-52.334-9.66-5.5-4.998-13.829-16.666-24.83-35.166-11.166-18.172-23.837-43.002-38.168-74.174l-15.663 17.998c4.497 21.502 12.825 47.008 24.995 76.674 12.005 29.829 22.33 53.328 30.669 70.66 6.33 11.667 13.501 19.504 21.501 23.335 8.502 4.169 16.503 6.34 24.001 6.34 18.326 0 58-4.67 119.328-14.166 16.164-2.5 27.504-3.842 33.67-3.842 5.83 0 14.004 3.002 24.503 8.84 10.664 6.167 17.497 9.169 20.498 9.169 3.83 0 5.828-2.008 5.828-5.84 0-2.663-17.998-28.999-54.168-79.162l-33.158-47.335C252.166 233 228.002 171.662 228.002 118.66c0-37.164 12.17-55.664 36.662-55.664 13.337 0 32.503 9.506 57.507 28.334 25.333 20.17 47.162 43.504 65.498 69.83 18.5 27.668 37 68.335 55.5 122.001l45 130.34 67.833 21.5-67.833-213.834c-15.007-48.504-22.506-84.5-22.506-107.998 0-37.502 15.335-56.176 46.004-56.176 24.83 0 51.669 16.502 80.833 49.333 29.337 33.005 52.17 66.84 68.498 101.668 13.665 27.34 24.83 56.34 33.333 86.999 8.502 31.007 12.671 61.174 12.671 90.502 0 35.832-3.001 63.674-9.004 83.506l63.664 21.993c6.167-3.494 11.176-10.664 15.007-21.492 4.17-10.673 6.33-26.5 6.33-47.335z"/></glyph><glyph id="glyph326" horiz-adv-x="700" unicode="D"><path id="path324" d="M765.995 419.834c0-97.837-23.827-181.496-71.326-251.337-25.67-37.83-67.67-73.826-126.006-107.998-46.332-27.668-84.991-45.502-116.326-53.328C414.67-1.67 345.496-6.002 245.334-6.002c-6.003 0-59.003 2.007-159.34 6.002l45.339 45.502c39.837 3.831 70.998 11.996 93.831 24.329 22.833 12.835 40.504 43.504 53.165 91.998l107.507 416.177c-68.673-6.505-121.171-27.504-157.67-63.173-36.17-35.166-54.168-80.832-54.168-136.834 0-16.328 1.834-42.5 5.337-78.332l-83.003-33.671c-3.494 19.842-5.327 42.675-5.327 68.335v15.673c0 63.162 30.997 119.83 92.827 169.992 62.005 50.5 136.168 80.166 222.501 89.006L484.503 640l-6.833-30.003c192.16 0 288.326-63.326 288.326-190.162zm-87.993-26.5c0 72.996-19.165 122.667-57.67 149.003C581.835 568.837 531.334 582 468.827 582l-83.495-327.334c-9.168-36.17-22.67-69-40.504-98.328C327.17 127 291.337 90.164 237.333 45.502v-.164c10.162 0 29.83-1.004 59.167-2.838a1530.693 1530.693 0 0 1 87-2.499c115.496 0 196.83 47.663 243.663 143.164 33.835 67.167 50.84 137.172 50.84 210.168zM0 609.996"/></glyph><glyph id="glyph330" horiz-adv-x="339" unicode="c"><path id="path328" d="m403.997 348.999-66.83-38.997c-6.832 44.662-24.666 66.993-53.163 66.993-34.173 0-63.009-35.33-86.333-105.99-23.171-70.343-34.675-125.003-34.675-164 0-41.333 20.17-62.005 60.335-62.005C258.497 45 320 64.668 408 104.003l-4.834-27.831C322.335 33.67 268.167 8.164 241-.338c-27.33-8.492-51.505-12.661-72.668-12.661-31.837 0-53.328 8.502-64.832 25.332-11 17.333-16.5 45-16.5 83.004 0 39.663 9.168 85.165 27.33 136.66 17.834 51.003 37.84 87.173 60.007 108.336 16.502 16 40.329 33.67 71.162 53.164 41.333 27.668 72.504 41.507 93.667 41.507 43.833 0 65.836-24.174 65.836-72.668 0-4.998-.338-9.332-1.004-13.337zM191.002 0"/></glyph><glyph id="glyph334" horiz-adv-x="459" unicode="ü"><path id="path332" d="m412.499 395.997 80.504 39.008-63.008-219.674c-8.83-30.496-14.996-56.33-18.5-77.493-3.657-20.836-5.326-38.004-5.326-51.341 0-12.333 3.667-18.5 11.165-18.5 5.829 0 41.66 17.332 107.67 52.007V92.162L407.5 24.165C365.163-.665 342.33-13 338.663-13c-10.325 0-15.662 5.665-15.662 16.994 0 3.34.665 10.172 1.997 21.01l9.332 70.998-133.833-85.667c-8.83-5.501-17.834-10.838-27.33-16C164-10.5 155.835-13 148.337-13c-7.837 0-14.833 6.996-21 21-6.166 14.002-9.342 30.33-9.342 49.332 0 8.338 2.674 22.833 7.836 43.33l51.67 196.166c6.33 22.505 9.331 35.668 9.331 39.673 0 11.667-4.671 17.496-14.167 17.496-11.503 0-35.002-9.332-70.67-27.996l3.503 28.16 78.169 44.836c41.497 24 67.003 36.006 76.335 36.006 10.828 0 16.165-5.675 16.165-17.004 0-9.168-3.668-27.504-11.166-55.162l-57.17-210.834C203.336 135 201 119.665 201 106c0-25.332 6.33-38.003 19.002-38.003 8.502 0 22.67 5.838 42.5 17.506 20.16 11.667 45.83 29.83 76.664 54.496L412.5 395.997zm-160.497 172 56.002 41.006c5.829-12.672 17.834-29.666 35.996-50.84L296.828 521c-15.662 8.502-30.495 24.164-44.826 46.997zm130.995 0L439 609.003c5.839-12.672 17.834-29.666 35.996-50.84L427.834 521c-15.663 8.502-30.506 24.164-44.837 46.997zm-35.002-77.994"/></glyph><glyph id="glyph338" horiz-adv-x="319" unicode="t"><path id="path336" d="M244.996 498.996 322.663 537l-40.995-172h142.335l-24.339-26.162c-4.999-5.173-14.669-7.837-29.327-7.837h-98.503v-.164L228.002 135c-1.997-8.502-3.001-16.164-3.001-22.997 0-9.506 3.165-19.165 9.332-29.337 6.504-9.834 13.839-14.669 22.003-14.669 10.827 0 26.5 4.671 46.997 14.167L370 112.004l-3.504-29.84L232.5 4.999C211.336-6.996 197.17-12.999 190-12.999c-14.67 0-26.337 9.168-34.828 27.33C146.996 32.83 143 49.67 143 64.996c0 10.008 1.332 21.173 3.831 33.168l56.166 232.673v.164H106l34.665 26.664c6.166 4.835 15.672 7.335 28.333 7.335h40.831l35.167 133.996zM170.003 0"/></glyph><glyph id="glyph342" horiz-adv-x="279" unicode="-"><path id="path340" d="m69 189.005 27.33 58h238.666l-27.33-58H69z"/></glyph><glyph id="glyph346" horiz-adv-x="399" unicode="ö"><path id="path344" d="M86.999 112.833c0 25.834 6.003 59.833 17.998 101.995 12.507 42.675 24.666 72.34 36.672 88.843 11.995 16.994 31.827 35.494 59.495 55.663 38.67 29.328 69.84 49.17 93.165 59.495 23.837 10.838 45 16.175 63.5 16.175 62.834 0 94.17-37.338 94.17-112.167 0-23.837-3.33-50.173-9.834-79.173C435.67 215.003 426 185.501 413 154.832c-5.163-10.664-12.17-22.833-21-36.498-8.501-13.337-23.17-29.164-44.006-47.336-23.662-22.167-51.832-41.66-84.325-58.665-32.503-16.83-62.005-25.332-88.34-25.332-31.828 0-54.66 8.83-68.326 26.336C93.667 30.997 87 64.166 87 112.833zm75.997 14.669c0-59.003 22.003-88.505 66-88.505 41.67 0 76.509 28.17 104.504 84.5 28.334 56.667 42.501 110.508 42.501 161.337 0 65.497-22.505 98.164-67.505 98.164-40.995 0-75.495-27.668-103.491-82.994-28.006-55.5-42.01-113.007-42.01-172.502zM262 567.996l56.002 41.006c5.828-12.672 17.834-29.666 35.996-50.84L306.836 521c-15.672 8.502-30.505 24.164-44.836 46.997zm130.995 0 56.002 41.006c5.839-12.672 17.834-29.666 36.006-50.84L437.83 521c-15.662 8.502-30.495 24.164-44.836 46.997zm-34.992-77.994"/></glyph><glyph id="glyph350" horiz-adv-x="459" unicode="n"><path id="path348" d="m104.003 326.002 3.493 28.16 55.674 33.168c52.826 31.838 86.999 47.674 102.333 47.674 13 0 19.494-5.675 19.494-17.004 0-9.834-1.998-21.502-6.331-35.003l-16.502-56.995L408.33 405.83c34.838 19.504 57.005 29.174 66.839 29.174 5.829 0 11.166-1.834 16-5.337 5.163-3.329 7.827-7.498 7.827-12.671 0-5.993-.994-12.661-2.991-20.16l-70.671-263.168c-4.671-18.336-6.832-29.84-6.832-34.664 0-16 6.002-24 17.998-24 8.338 0 44.836 17.66 109.504 53l-4.835-27.842-140.501-95c-18.173-12.159-32.503-18.161-42.84-18.161-6.832 0-12.998 3.165-18.5 9.332-5.162 6.504-7.825 13.5-7.825 20.999 0 10.664.666 18.5 1.997 23.335l67.331 267.5c3.668 13.328 5.337 23.336 5.337 30.168 0 10.5-5.173 15.663-15.498 15.663-10.336 0-33.507-10.5-69.175-31.663l-70.66-41.999L175.666 16.83 101-13l89.335 322.162c3.001 10.008 4.497 18.838 4.497 26.336 0 12.334-4.835 18.5-14.331 18.5-12.333 0-37.84-9.332-76.5-27.996zM258.999 0"/></glyph><glyph id="glyph354" horiz-adv-x="580" unicode="F"><path id="path352" d="m729.999 628.998-9.834-24.994-52.17-39.008H503.503l-62.835-265.995 148.327-4.835-28.825-24L429.994 254c-12.661-50.163-26.326-100.336-40.831-150.5-12.661-42.172-45.666-87.5-98.666-136.505-40.668-36.662-72.996-60.499-96.67-71.326-19.493-8.502-49.66-12.671-90.327-12.671-10.172 0-24.34 1.331-42.501 4.005L95.161-45c31.674-1.332 57.334-1.998 77.176-1.998 31.499 0 54.823 4.333 69.83 13.163 14.997 8.83 27.494 23.335 37.666 43.505C297 46.496 321.002 128.005 351.835 254l-17.834 8.338 27.996 34.664L433.169 569c-30.505 4.661-51.668 6.997-63.336 6.997-40.165 0-72.668-12.661-97.334-37.994C248.17 512.672 236 476.164 236 428.336c0-16.164 4.333-52.006 12.999-107.507l-78.835-30.833c-6.832 32.841-10.162 59.003-10.162 78.507 0 69 23.161 126.334 69.33 172.164 46.495 46.168 116.161 69.329 208.835 69.329 13.665 0 37.164-.666 70.333-2.162 33.834-1.168 59.33-1.833 76.499-1.833 61.83 0 110.17 7.662 144.998 22.996z"/></glyph><glyph id="glyph358" horiz-adv-x="440" unicode="h"><path id="path356" d="m527.002 120.004-4.835-33.67-69-39.664c-18.163-10.172-40.668-22.669-67.332-37.666-26.5-14.668-42.337-22.003-47.5-22.003C320.83-12.999 312-2.837 312 17.333c0 15.498 1.998 31.662 5.84 48.165l60.99 245.006c3.667 13.163 5.336 21.327 5.336 24.994 0 12.334-4.66 18.5-14.166 18.5-14.331 0-37-9.168-68.335-27.33l-107.496-62.506-66.83-248.827L54.998-13l135.338 509.17 9.168 32.667c2.991 13.501 8.492 27.494 16.666 42.5 5.501 10.828 20.334 26.163 44.499 46.496l73.333 59.505c27.166 22.495 58.327 33.66 93.996 33.66 7.17 0 28.835-1.997 65.005-5.828l-43.002-61.502c-24.503 6.166-49.333 9.332-74.338 9.332-26.5 0-46.168-8-59.33-24.001-13-15.499-27.003-47.5-42-95.665l-8.83-31.837-56.165-191.494 170.494 96.669c33.169 18.827 58.163 28.333 75.167 28.333 14.67 0 22.004-6.166 22.004-18.5 0-6.842-1.168-14.166-3.504-22.003l-66.337-261.673c-5.829-22.997-8.83-36.498-8.83-40.493 0-16.164 6.166-24.338 18.172-24.338 7.826 0 44.662 17.332 110.498 52.006z"/></glyph><glyph id="glyph362" horiz-adv-x="279" unicode="!"><path id="path360" d="M170.996 164s13 60.837 39.172 182.5c26.5 121.499 44.662 196.831 54.332 225.83l83.495 37.666 3.001-6.33-130.667-410.83-49.333-28.837zm-53-112.669 77.175 54.67c18.828-32.83 34.5-55.336 46.834-67.331L167.83-16c-17.997 16.666-34.5 38.997-49.834 67.33z"/></glyph><glyph id="glyph366" horiz-adv-x="500" unicode="T"><path id="path364" d="M741.001 656.164 719.5 580.167c-4.497-17.005-9.998-28.17-16.667-33.333-6.832-5.163-18.5-7.836-35.166-7.836-11.002 0-64.668 4.67-161.162 13.839l-97.673-340.835c-7.16-29-18.336-56.002-33.66-81.006-15.007-25.159-43.843-53.492-86.835-84.992h218.66C450.667 15.335 395.507 0 341.83 0H154.996l27.34 37c4.497 5.163 11.002 8.503 19.002 9.834 8.492 1.496 17.66 3.667 27.33 6.33l15.662 4.334c24.175 6.832 40.166 15.672 48.34 26.336 8.164 11.166 16.994 30.331 26.326 57.671 23.171 63.162 62.168 204.165 117.34 422.661-47.172 7.837-85.667 11.832-115.169 11.832-118.17 0-177.163-48.33-177.163-145.162 0-17.169 5.993-49.497 17.998-97.007l-77.001-43.832c-16 37.338-24 72.34-24 104.833 0 32.175 10.335 63.838 30.832 94.671 18.838 29.338 43.669 52.498 74.164 69.83 37.174 21.666 70.834 36.007 101.166 42.84 24.175 5.162 60.837 7.825 110.334 7.825 43.34 0 92.674-2.99 147.999-9.157 55.838-6.505 99.004-9.834 129.499-9.834 16.666 0 42.009 25.332 76.171 75.997L741 656.164zM299 0"/></glyph><glyph id="glyph370" horiz-adv-x="339" unicode="e"><path id="path368" d="m400.002 112.003-3.503-26.838C304.665 19.667 229.672-13 171.837-13c-56.504 0-84.838 33.835-84.838 101.505 0 44.826 9.332 94.497 27.832 148.829 18.172 54.997 39.837 94.169 64.832 117.668 18.838 17.834 52.006 40 99.342 66.327 16.994 9.168 35.494 13.675 55.664 13.675 42.828 0 64.33-19.842 64.33-59.505 0-49.17-18.336-85.165-55.162-108.336l-183.34-113.161c-2.325-8.84-3.493-19.34-3.493-31.837C157.004 70.67 179.837 45 225.329 45c34.838 0 93.001 22.33 174.674 67.003zm-233.667 77.995c70.834 41.998 113.663 72.668 128.168 91.997 14.997 19.504 22.495 41.17 22.495 65.006 0 27.996-11.002 41.999-33.169 41.999-13.993 0-29.993-11.002-48.33-33.169-18.161-22.167-33.496-53.164-45.829-93.001l-23.335-72.832zM208.999 0"/></glyph><glyph id="glyph374" horiz-adv-x="319" unicode="s"><path id="path372" d="m410 400.166-53.666-59.167-20.498 20.497c-16 16.339-32.84 24.503-50.5 24.503-17.169 0-33.333-6.167-48.34-18.5-14.659-12.333-21.993-27.504-21.993-45.328 0-15.007 4.835-27.504 14.669-37.676 10.161-9.66 20.16-18.162 30.331-25.332l60.663-40.995c10.336-7.498 17.506-15.673 21.501-24.83 3.831-8.84 5.829-20.006 5.829-33.671 0-36.334-21.164-74.338-63.664-113.663C242.005 6.668 192.836-13 136.998-13 93.995-13 67.33 5.337 57.333 41.835L46.003 82l67.834 46.004 8.328-36.672c8.164-36.836 31.335-55.336 69.503-55.336 27.002 0 49.66 8.502 67.997 25.332 18.172 17.005 27.34 36.006 27.34 57.17 0 20.17-11.34 36.334-34.173 48.667l-51.33 29.338c-31.673 18.5-47.5 43.494-47.5 75.167 0 40.493 19.832 77.995 59.67 112.167 39.826 34.163 79.664 51.167 119.491 51.167 37.502 0 63.172-11.668 76.837-34.839zM157.997 0"/></glyph><glyph id="glyph378" horiz-adv-x="440" unicode="p"><path id="path376" d="m115.005 326.002 3.493 23.827L189.168 397c37 25.333 61.83 38.004 74.502 38.004 7.826 0 12.825-2.008 15.16-5.839 2.5-3.667 3.832-8 3.832-13.337 0-3.493-2.5-16.83-7.324-39.991l-6.833-34.839 53.328 39.172c50.163 36.498 86.999 54.834 110.498 54.834 35.832 0 53.666-29.84 53.666-89.334 0-38.342-8.83-86.508-26.326-144.506-17.67-57.836-34.5-95.665-50.839-113.663C394.502 73.498 370 53.164 335.5 26.5 301 .164 272.84-13 251-13c-23.837 0-44.334 1.998-61.502 6.003L126.5-273.996l88.166-12.169c4.835-.666 7.335-1.998 7.335-4.005 0-.83-1.496-2.664-4.334-5.327L198-313.003H-18.5c-1.004.666-2.172 2.008-3.504 3.841 7.171 10.5 17.169 19.166 29.84 25.824 12.661 7.007 24.667 10.336 36.16 10.336h10.172l134.836 560.007c5.163 21.83 7.826 35.996 7.826 42.49 0 16.339-7.334 24.503-21.993 24.503-5.5 0-14.341-3.329-26.674-10.161l-33.159-17.835zM209 79.5c0-8.666 6.833-17.67 20.498-26.838 13.665-9.158 31.17-13.665 52.334-13.665 33.999 0 63.838 31.171 89.498 93.34C397.165 194.832 410 254.664 410 311.67c0 35.495-10.838 53.33-32.329 53.33-11.667 0-34.5-9.834-68.509-29.338-33.496-19.166-53.328-40.33-59.167-63.5l-35.166-156.83c-3.33-14.494-5.163-26.335-5.829-35.831z"/></glyph><glyph id="glyph382" horiz-adv-x="620" unicode="m"><path id="path380" d="m88.003 326.002 3.493 25.332c92.335 55.828 146.842 83.67 163.836 83.67 10.172 0 15.17-5.009 15.17-15.17 0-8.667-3-23.336-9.167-43.833l-16.667-58L411.495 418c19.504 11.33 32.503 17.004 39.008 17.004 3.83 0 6.996-1.506 9.66-4.333 2.673-2.673 3.84-7.836 3.84-15.673 0-3.165-2.673-13.163-8.173-30.167l-19.166-58.829 181.834 99.834c10.172 6.167 19.34 9.168 27.832 9.168 11.165 0 16.666-6.003 16.666-18.008 0-4.333-1.496-10.991-4.333-20.16l-74.328-262.174c-3.83-13.993-5.839-24.667-5.839-31.827 0-18.5 6.003-27.832 18.173-27.832 11.83 0 47.499 14.997 107.332 45l-4.835-25.005L572.33 8.502C551.166-5.83 536.66-13 528.835-13c-22.167 0-33.332 11.668-33.332 35.167 0 12.66 2.663 29.337 7.826 49.835l56.667 230.5c3.504 13.666 5.337 22.168 5.337 25.497 0 12.671-3.329 19.002-10.336 19.002-11.995 0-30.997-8-57.17-24l-69.83-42.502L350.33 20.17 279.998-13l76.673 293.5c6.833 25.168 10.326 41.333 10.326 48.503 0 11.995-3.995 17.998-11.832 17.998-9.332 0-28.17-9.332-56.503-27.832l-70.159-45-71.172-254L85-13l82 297.167c4.999 16.994 7.334 32.165 7.334 45.83 0 15.335-6.003 23.007-18.172 23.007-8.83 0-31.499-9.004-68.16-27.002z"/></glyph><glyph id="glyph386" horiz-adv-x="660" unicode="K"><path id="path384" d="M840.999-135.338c-20.835-11.165-45.83-16.666-74.83-16.666-68.836 0-124.336 16.84-166.836 50.337-42 33.998-76.838 90.666-104.167 170.167l-80.669 235.336c-1.495 6.166-4.497 9.332-8.83 9.332-20.835-78.17-42.336-131.497-64.504-160.17-22.167-28.333-55.991-64.001-101.668-106.993h127.502C323.001 15.335 291.502 0 272.664 0H54.004l45.328 46.004c66.164 0 110.17 9.997 132 29.829 18.837 16.83 34.5 39.663 46.833 68.335 12.333 28.662 26.5 74.164 42.5 136.332L388.5 554.999 313.33 553c-84.827-1.833-127.328-39.171-127.328-111.665 0-20.497 6.833-53.502 20.498-99.004l-79.84-29.327c-11.165 29-16.665 56.831-16.665 83.495 0 70.169 37.84 124.173 113.335 161.84 29.337 14.996 61 24.83 95.337 29.327 28.334 4.169 71.664 6.33 129.827 6.33 41.835 0 63.838-1.332 66.501-3.83-5.5-6.833-14.833-14.998-27.832-24.493-6.494-3.842-13.665-5.84-21.501-5.84l-53.164-209.501h-1.004L677.501 563c19.504 16.338 35.832 28.334 48.831 35.832 13 7.498 27.002 11.165 41.999 11.165 18.336 0 37.84-4.66 58.665-13.992l-35.658-84.008c-26.336 8-49.835 12.006-70.343 12.006-31.663 0-69.83-18.838-114.493-56.33L474.995 357.001 578.332 78.498c48.831-130.995 101.166-196.493 157.004-196.493 29.328 0 57.498 20.497 84.664 61.666 3.165 4.825 5.336 7.335 6.33 7.335 1.67 0 3.165-4.343 4.333-13.337L841-135.337zM382.998 0"/></glyph><glyph id="glyph390" horiz-adv-x="399" unicode="g"><path id="path388" d="m503.001 429.166-11.165-19.504c-17.333-28.661-30.168-42.664-38.67-41.998-3.831 0-5.829-.994-5.829-3.002L310.667-172.83c-4.67-14.833-29.829-39.335-75.67-73.17-46.495-33.67-84.335-53.666-113.16-60.17-21.174-4.498-51.341-6.833-90.338-6.833-54.332 0-91.496 5.173-111.665 15.672-19.832 10.5-29.83 29.328-29.83 56.832 0 18.5 9.66 38.495 28.826 60.16 19.166 21.502 39.5 42.675 60.837 63.5C46.997-52.498 91.496-11.328 113.336 6.998c-18.838 24.666-28.334 57.17-28.334 97.17 0 24.001 16.328 81.334 48.831 171.662 9.496 25.835 21.501 45.666 36.17 59.67 51.997 49.004 98.83 79.664 140.163 91.669 18.5 5.163 43.167 7.836 73.672 7.836 39.325 0 79.162-2.007 119.164-5.838zm-73.672-64.504c-30.331 4.17-74.83 6.34-133.33 6.34-25.835 0-43.997-4.834-54.835-14.668-11.995-12.333-24.666-39.171-37.993-80.504C178.996 200.836 167 149.67 167 122.668c0-11.996 2.335-23.663 6.832-35.167C178.668 76.5 185.5 71 194.33 71c2.674 0 9.506 4.17 20.498 12.671l107.005 78.999 33.67 121.499c5.163 19.166 29.83 46.004 73.826 80.494zM313.003 115.835C229.497 59.997 151.666-.829 79.828-66.665 8-132.337-27.996-177.5-27.996-202.33c0-39.171 39.827-58.665 119.492-58.665 50.501 0 86.17 7.826 107.343 23.499 21.163 16 37.83 48.001 50.327 95.829l3.831 16.164 60.007 241.339zm77.001 374.168"/></glyph><glyph id="glyph394" horiz-adv-x="459" unicode="u"><path id="path392" d="m412.499 395.997 80.504 39.008-63.008-219.674c-8.83-30.496-14.996-56.33-18.5-77.493-3.657-20.836-5.326-38.004-5.326-51.341 0-12.333 3.667-18.5 11.165-18.5 5.829 0 41.66 17.332 107.67 52.007V92.162L407.5 24.165C365.163-.665 342.33-13 338.663-13c-10.325 0-15.662 5.665-15.662 16.994 0 3.34.665 10.172 1.997 21.01l9.332 70.998-133.833-85.667c-8.83-5.501-17.834-10.838-27.33-16C164-10.5 155.835-13 148.337-13c-7.837 0-14.833 6.996-21 21-6.166 14.002-9.342 30.33-9.342 49.332 0 8.338 2.674 22.833 7.836 43.33l51.67 196.166c6.33 22.505 9.331 35.668 9.331 39.673 0 11.667-4.671 17.496-14.167 17.496-11.503 0-35.002-9.332-70.67-27.996l3.503 28.16 78.169 44.836c41.497 24 67.003 36.006 76.335 36.006 10.828 0 16.165-5.675 16.165-17.004 0-9.168-3.668-27.504-11.166-55.162l-57.17-210.834C203.336 135 201 119.665 201 106c0-25.332 6.33-38.003 19.002-38.003 8.502 0 22.67 5.838 42.5 17.506 20.16 11.667 45.83 29.83 76.664 54.496L412.5 395.997zm-412.5 39.007"/></glyph><glyph id="glyph398" horiz-adv-x="459" unicode="S"><path id="path396" d="M46.998-11.995 81.17 95.829l15.16 11.176c8.503-52.007 25.999-88.167 52.673-108.5 26.664-20.334 59.833-30.506 99.834-30.506 49.334 0 89.499 14.997 120.331 45 31.161 30.332 46.834 67.167 46.834 110.672 0 22.495-4.835 41.999-14.669 58.665-9.67 16.994-21.829 31.335-36.498 42.993L299 279.169c-21.338 17.998-36.334 35.668-44.836 52.837-8.165 17.66-12.16 36.323-12.16 55.827 0 58.665 23.991 110.498 71.829 155.17 48.329 44.662 96.832 66.993 145.838 66.993 55.991 0 87.828-27.995 95.327-84.161l-70.333-48.831c-7.498 36.334-16.83 59.495-27.996 69.328-10.837 9.834-25.834 14.67-45.174 14.67-30.331 0-55.664-13.338-75.495-40.166-19.996-26.664-30.004-54.332-30.004-82.666 0-25.168 5-45.338 15.171-60.673 10.5-15.334 21.501-27.33 33.333-36.16l63.162-45.501c26.008-19.668 45-37 56.667-52.335 11.842-14.997 17.67-36.836 17.67-65.17 0-58.992-28.835-117.166-86.332-174.162-57.672-56.831-125.003-85.165-202.004-85.165-65.498 0-117.668 22.997-156.666 69zm163.005-53.001"/></glyph><glyph id="glyph402" horiz-adv-x="440" unicode="d"><path id="path400" d="M493.004 112.003 489.501 90c-9.998-8.83-38.332-28.17-84.664-58-46.506-30.003-73.334-45-80.504-45-4.835 0-9.496 1.998-14.003 5.83-4.66 4.004-6.832 7.672-6.832 11.339 0 3.329 2.171 31.499 6.832 84.827l-55.326-38.66c-59.669-42.172-97.672-63.335-113.837-63.335-26.162 0-39.171 23.334-39.171 69.83 0 35.504 6.003 78.671 18.008 129.838 14.659 62.998 32.83 110.334 54.332 141.997 7.826 10.664 25.66 26.838 53.83 48.33 29.83 23.672 53.164 39.335 69.83 46.833 16.667 7.509 32.842 11.176 48.842 11.176 11.166 0 22.659-1.168 34.664-3.503 18.336 87.337 33.999 140.5 46.998 159.329 8 10.673 27.668 28.835 58.501 54.168 32.001 27.002 55.336 45.338 70.333 54.834 11.667 7.498 29 11.165 51.832 11.165 9.998 0 25.333-1.997 45.83-5.828l-37.993-64.002c-22.506 3.83-41.507 5.828-57.17 5.828-26.336 0-45.164-10.161-56.165-30.331-10.838-19.832-20.17-47.663-28.334-83.496l-89.335-409.836c-3.001-14.668-4.497-23.498-4.497-26.828 0-14.34 6.331-21.5 19.002-21.5 10.664 0 41.497 12.332 92.5 37zM366.496 358.997c-20.661 12.005-42.49 17.998-65.661 17.998-20.836 0-37.338-6.996-49.497-21-16.503-18.827-32.667-56.329-48.34-112.33-16.666-60.161-24.994-105.335-24.994-135.164 0-30.332 8.328-45.502 24.994-45.502 7.498 0 23.837 8.164 49.005 24.666 25.169 16.339 46.168 32.001 63.162 46.67l51.331 224.662z"/></glyph><glyph id="glyph404" horiz-adv-x="220"/><glyph id="glyph408" horiz-adv-x="299" unicode="r"><path id="path406" d="m424.996 429.166-28.334-85.33C373.338 350.67 355.832 354 344 354c-22.331 0-48.166-11.002-77.329-33.17L183.667 15.336 104.997-13l78.67 287.497c6.167 21.501 9.168 39.335 9.168 53.666 0 17.168-6.003 25.834-17.998 25.834-11.667 0-35.842-8.666-72.842-25.998l3.503 28.334 80.33 41.497c46.67 24.84 74.502 37.174 83.343 37.174 8.666 0 13.163-3.667 13.163-11.176 0-4.66-.83-11.165-2.5-19.494L271.998 357l40 35.668c31.838 28.17 56.832 42.337 75.005 42.337 13.326 0 25.998-2.008 37.993-5.839zM141.002.001"/></glyph><glyph id="glyph412" horiz-adv-x="419" unicode="a"><path id="path410" d="M472.004 411.997c-18.838-21.163-29.676-34.162-32.175-38.997-4.66-7.837-9.496-23.837-14.659-47.838l-49.333-215.494c-2.335-11.668-3.503-18.336-3.503-20.006C372.334 79.162 376.329 74 384 74c6.003 0 14.833 2.837 26.828 8.338L480.998 119c0-6.505-.502-12.497-1.496-18.162-1.003-5.5-4.333-10.172-10.171-14.167L334.167-.829C320-9.67 309.664-14.004 303.497-14.004c-11.995 0-17.998 5.665-17.998 17.004 0 10.162.666 19.996 1.998 29.666l9.168 63.336-127.502-90C151-6.67 137.336-13 128.168-13c-24.83 0-37.164 26.828-37.164 80.494 0 43.003 6.494 87.337 19.494 133.341 12.999 45.83 31.007 88.832 53.84 129.161 6.494 11.504 27.166 30.167 61.994 56.166 36.498 25.67 64.33 40.503 83.506 44.508 12.661 2.827 25.496 4.333 38.66 4.333 23.006 0 64.165-7.672 123.506-23.007zm-104.505-41.169c-34.162 8.174-59.495 12.17-75.833 12.17-11.33 0-24.165-4.17-38.67-12.662-19.166-10.5-38.66-48.34-58.665-113.837-18.162-59.832-27.33-106-27.33-138.166 0-33.496 8.328-50.337 24.995-50.337 21.5 0 59.668 24.503 114.502 73.334L367.5 370.827zM307 0"/></glyph><glyph id="glyph416" horiz-adv-x="399" unicode="o"><path id="path414" d="M86.999 112.833c0 25.834 6.003 59.833 17.998 101.995 12.507 42.675 24.666 72.34 36.672 88.843 11.995 16.994 31.827 35.494 59.495 55.663 38.67 29.328 69.84 49.17 93.165 59.495 23.837 10.838 45 16.175 63.5 16.175 62.834 0 94.17-37.338 94.17-112.167 0-23.837-3.33-50.173-9.834-79.173C435.67 215.003 426 185.501 413 154.832c-5.163-10.664-12.17-22.833-21-36.498-8.501-13.337-23.17-29.164-44.006-47.336-23.662-22.167-51.832-41.66-84.325-58.665-32.503-16.83-62.005-25.332-88.34-25.332-31.828 0-54.66 8.83-68.326 26.336C93.667 30.997 87 64.166 87 112.833zm75.997 14.669c0-59.003 22.003-88.505 66-88.505 41.67 0 76.509 28.17 104.504 84.5 28.334 56.667 42.501 110.508 42.501 161.337 0 65.497-22.505 98.164-67.505 98.164-40.995 0-75.495-27.668-103.491-82.994-28.006-55.5-42.01-113.007-42.01-172.502zm195.007 362.5"/></glyph><glyph id="glyph420" horiz-adv-x="240" unicode="i"><path id="path418" d="M316.998 633.003c0-14.669 7.334-41.005 22.003-78.999L266.17 513c-18.173 17.833-29.338 43.504-33.17 77l83.998 43.003zM96.003 318.002l3.493 26.828c88.34 60.17 139.17 90.174 152.671 90.174 10.336 0 15.663-5.675 15.663-17.004 0-1.998-1.332-8.502-3.995-19.668l-69.34-286.83c-1.997-8.503-2.827-15.172-2.827-20.006 0-6.833 1.67-12.662 5.337-17.158 3.493-4.17 9.66-6.341 18.5-6.341 8.666 0 39.162 12.005 91.496 36.006l-4.835-26.838C206 17.005 151.503-13 138.832-13c-17.834 0-26.828 14.494-26.828 43.494 0 30.003 9.998 79.675 29.83 149.003 24.338 86.497 36.497 137.838 36.497 153.838 0 9.168-4.497 13.665-13.665 13.665-12.17 0-35.002-9.67-68.663-29zM144.004 0"/></glyph></font>
</defs>
</svg>
