<?xml version="1.0" encoding="UTF-8" standalone="no"?>
<!-- Creator: CorelDRAW X7 -->

<svg
   xml:space="preserve"
   width="1260px"
   height="411px"
   version="1.1"
   style="shape-rendering:geometricPrecision; text-rendering:geometricPrecision; image-rendering:optimizeQuality; fill-rule:evenodd; clip-rule:evenodd"
   viewBox="0 0 1260 411"
   id="svg163"
   sodipodi:docname="Sonderaktion_Rüstung_01_2025_de.svg"
   inkscape:version="1.2 (dc2aedaf03, 2022-05-15)"
   xmlns:inkscape="http://www.inkscape.org/namespaces/inkscape"
   xmlns:sodipodi="http://sodipodi.sourceforge.net/DTD/sodipodi-0.dtd"
   xmlns:xlink="http://www.w3.org/1999/xlink"
   xmlns="http://www.w3.org/2000/svg"
   xmlns:svg="http://www.w3.org/2000/svg"><sodipodi:namedview
   id="namedview165"
   pagecolor="#ffffff"
   bordercolor="#000000"
   borderopacity="0.25"
   inkscape:showpageshadow="2"
   inkscape:pageopacity="0.0"
   inkscape:pagecheckerboard="0"
   inkscape:deskcolor="#d1d1d1"
   showgrid="false"
   inkscape:zoom="1.547619"
   inkscape:cx="555.04615"
   inkscape:cy="205.47692"
   inkscape:window-width="3840"
   inkscape:window-height="2054"
   inkscape:window-x="-11"
   inkscape:window-y="-11"
   inkscape:window-maximized="1"
   inkscape:current-layer="Ebene_x0020_1" />
 <defs
   id="defs124">
  <font
   id="FontID0"
   horiz-adv-x="739"
   font-variant="normal"
   style="fill-rule:nonzero"
   font-style="normal"
   font-weight="400,700">
	<font-face
   font-family="Century Gothic"
   id="font-face2">
	</font-face>
   <missing-glyph
   id="missing-glyph6"><path
     d="M0 0z"
     id="path4" /></missing-glyph>
   <glyph
   unicode="f"
   horiz-adv-x="313"
   id="glyph10"><path
     d="M296.005 735.326l0 -66.4977c-25.1784,10.8384 -46.8385,16.1742 -64.8303,16.1742 -13.5063,0 -24.6782,-2.66791 -33.5156,-8.00374 -8.82078,-5.33582 -14.4901,-11.5054 -16.6578,-18.492 -2.33442,-7.00327 -3.50163,-25.6787 -3.50163,-55.8427l0 -71.6668 111.502 0 0 -58.9942 -111.669 0 -0.333489 -472.004 -67.9984 0 0 472.004 -69.9993 0 0 58.9942 69.9993 0 0 82.6719c0,38.0011 3.50163,65.1637 10.5049,81.338 6.98659,16.1575 18.9922,29.3304 35.8334,39.1516 16.6578,9.83792 37.0006,14.8403 60.8284,14.8403 22.1603,0 48.8395,-4.5021 79.8373,-13.673z"
     id="path8" /></glyph>
   <glyph
   unicode="D"
   horiz-adv-x="744"
   id="glyph14"><path
     d="M86.9997 0l0 718.001 148.995 0c107.338,0 185.338,-8.66926 233.834,-25.8306 69.673,-24.5078 124.169,-66.673 163.334,-127.003 39.1652,-60.1651 58.8423,-131.834 58.8423,-215.172 0,-71.9997 -15.5078,-135.165 -46.677,-189.826 -30.992,-54.673 -71.4918,-95.1729 -120.992,-121.169 -49.6652,-25.996 -119.338,-38.9998 -208.842,-38.9998l-228.495 0zm68.9997 67.9958l82.8304 0c98.9996,0 167.503,6.16533 205.842,18.5078 53.8226,17.6574 96.3303,49.1573 127.157,94.8303 30.8385,45.8384 46.1691,101.669 46.1691,167.669 0,69.1651 -16.6653,128.492 -50.1612,177.495 -33.3306,49.1691 -80.0076,82.8304 -139.665,101.007 -44.8345,13.6653 -118.677,20.492 -221.503,20.492l-50.6691 0 0 -580.002z"
     id="path12" /></glyph>
   <glyph
   unicode="R"
   horiz-adv-x="580"
   id="glyph18"><path
     d="M91 718l145.165 0c79.3386,0 136,-7 169.669,-21.1654 33.8346,-14.1654 60.8346,-37.8346 81.3307,-70.6693 20.5039,-32.8346 30.8346,-71.6614 30.8346,-116.661 0,-47.1732 -11.3307,-86.6693 -33.8346,-118.339 -22.6614,-31.8346 -56.6614,-55.8346 -102.165,-72l169.504 -319.165 -149.339 0 -161.331 304 -13.8346 0 0 -304 -136 0 0 718zm136 -281l43.3307 0c44,0 74.1732,5.66929 90.8346,17.1654 16.5039,11.5039 24.8346,30.5039 24.8346,57.1654 0,15.6693 -4.16535,29.3386 -12.3307,41 -8.16535,11.6693 -19.1654,20 -33,25 -13.6693,5.17323 -39,7.66929 -75.8346,7.66929l-37.8346 0 0 -148z"
     id="path16" /></glyph>
   <glyph
   unicode="t"
   horiz-adv-x="338"
   id="glyph22"><path
     d="M135 729l68 0 0 -198 108 0 0 -59 -108 0 0 -472 -68 0 0 472 -93 0 0 59 93 0 0 198z"
     id="path20" /></glyph>
   <glyph
   unicode="ü"
   horiz-adv-x="607"
   id="glyph26"><path
     d="M67 531l68 0 0 -247.835c0,-60.4961 3.33071,-102 9.83465,-124.835 9.66929,-32.4961 28.4961,-58.1654 56,-77 27.4961,-18.8268 60.4961,-28.3307 98.6693,-28.3307 38.1654,0 70.4961,9.16535 97.1654,27.5039 26.4961,18.4961 45,42.4961 55,72.4961 6.83465,20.5039 10.3307,63.8346 10.3307,130.165l0 247.835 70 0 0 -260.331c0,-73.1654 -8.49606,-128.165 -25.6693,-165.165 -17,-37.1732 -42.8268,-66.1732 -77.1654,-87 -34.3307,-21.0079 -77.3307,-31.5039 -129.165,-31.5039 -51.8346,0 -95,10.4961 -129.669,31.5039 -34.6614,20.8268 -60.6614,50.1654 -77.6614,87.6614 -17.1654,37.5039 -25.6693,94 -25.6693,169.339l0 255.496zm134.504 210c15.6614,0 28.8268,-5.49606 40,-16.4961 11,-11.1732 16.4961,-24.3386 16.4961,-40 0,-15.5039 -5.49606,-28.8346 -16.4961,-40 -11.1732,-11 -24.3386,-16.5039 -40,-16.5039 -15.5039,0 -28.8346,5.50394 -40,16.5039 -11,11.1654 -16.5039,24.4961 -16.5039,40 0,15.6614 5.50394,28.8268 16.5039,40 11.1654,11 24.4961,16.4961 40,16.4961zm199 0c15.6614,0 28.8268,-5.49606 40,-16.4961 11,-11.1732 16.4961,-24.3386 16.4961,-40 0,-15.5039 -5.49606,-28.8346 -16.4961,-40 -11.1732,-11 -24.3386,-16.5039 -40,-16.5039 -15.5039,0 -28.8346,5.50394 -40,16.5039 -11,11.1654 -16.5039,24.4961 -16.5039,40 0,15.6614 5.50394,28.8268 16.5039,40 11.1654,11 24.4961,16.4961 40,16.4961z"
     id="path24" /></glyph>
   <glyph
   unicode="0"
   horiz-adv-x="559"
   id="glyph30"><path
     d="M277.831 735.999c52.3347,0 97.5002,-12.8327 135.337,-38.4981 37.9961,-25.8367 67.1635,-65.0021 87.8329,-117.833 20.6634,-53.0021 30.9981,-126.502 30.9981,-220.837 0,-95.3329 -10.5,-169.5 -31.5001,-222.662 -21,-53.0021 -49.1635,-92.0021 -84.6675,-116.835 -35.3327,-24.8327 -80.1675,-37.3347 -134.168,-37.3347 -54.0001,0 -99.3309,12.502 -135.998,37.5001 -36.8327,25.1693 -65.6635,63.1655 -86.4982,114.331 -20.8347,51.0001 -31.1694,123.668 -31.1694,218.168 0,131.67 20.3327,227.168 61.0041,286.335 45.1654,65.1675 108.166,97.6655 188.829,97.6655zm4.1693 -129.998c-23.002,0 -43.3347,-7.33466 -61.1694,-22.1693 -17.8288,-14.6634 -31.3288,-40.1635 -40.8308,-76.1635 -9.33663,-36.0001 -14.002,-88.6655 -14.002,-158.168 0,-90.5021 10.8366,-153.166 32.3327,-187.666 21.502,-34.5001 49.3347,-51.8328 83.6695,-51.8328 33.0001,0 59.1674,16.3288 78.5021,49.1635 23.6634,39.6674 35.4981,105.833 35.4981,198.668 0,93.9982 -10.6654,159 -31.8367,194.664 -21.1654,35.6694 -48.4962,53.504 -82.1635,53.504z"
     id="path28" /></glyph>
   <glyph
   unicode="n"
   horiz-adv-x="609"
   id="glyph34"><path
     d="M76 531l68 0 0 -95.1654c27.5039,36.3307 57.8346,63.4961 91,81.3307 33.3307,17.8346 69.5039,26.8346 108.669,26.8346 39.8346,0 75.1654,-10 106,-30.1654 30.8346,-20.1654 53.6614,-47.3307 68.3307,-81.5039 14.6693,-34 22,-87.1654 22,-159.331l0 -273 -68 0 0 253c0,61 -2.66929,101.835 -7.83465,122.331 -8.33071,35 -23.6614,61.3386 -46.1654,79.1732 -22.4961,17.6614 -51.8346,26.4961 -88,26.4961 -41.4961,0 -78.6693,-13.6693 -111.331,-41 -32.8346,-27.1654 -54.5039,-61 -64.8346,-101.331 -6.50394,-26.3386 -9.83465,-74.3386 -9.83465,-144.165l0 -194.504 -68 0 0 531z"
     id="path32" /></glyph>
   <glyph
   unicode="k"
   horiz-adv-x="502"
   id="glyph38"><path
     d="M76.0029 736.003l67.9962 0 0 -419.672 248.003 214.671 98.9974 0 -292.336 -253.003 309.337 -277.998 -96.8317 0 -267.169 240.168 0 -240.168 -67.9962 0 0 736.003z"
     id="path36" /></glyph>
   <glyph
   unicode="ß"
   horiz-adv-x="554"
   id="glyph42"><path
     d="M79.0036 0l0 485.171c0,73.4997 7.15745,125.834 21.3306,156.992 14.1614,31.1692 37.4999,56.8344 70.0037,76.8422 32.492,19.996 70.6651,29.9999 114.826,29.9999 57.673,0 104.338,-16.6771 139.665,-50.173 35.5038,-33.4959 53.173,-75.6611 53.173,-126.33 0,-32.1731 -8.1732,-60.673 -24.3306,-85.8304 -16.3346,-25.0038 -38.9998,-44.9998 -68.0076,-59.8344 -15.8267,-8.1732 -38.1613,-14.1732 -66.8265,-17.9999 31.4999,-5.00785 55.8305,-11.8346 72.6611,-20.5039 35.1731,-18.496 62.8344,-43.9959 82.665,-76.4997 19.8306,-32.5038 29.8345,-70.0037 29.8345,-112.5 0,-62.3383 -19.1692,-113.338 -57.4958,-152.999 -38.3384,-39.4959 -87.3304,-59.3383 -147.33,-59.3383 -40.3345,0 -74.3383,8.00784 -102.177,23.9999l0 65.0076c34.4999,-16.0039 65.3383,-23.9999 92.6689,-23.9999 41.9998,0 77.0076,13.8307 104.669,41.492 27.8385,27.8385 41.6691,63.673 41.6691,107.834 0,48.8384 -16.6653,88.8422 -50.173,119.503 -33.3306,30.8385 -81.6611,47.1612 -144.826,49.1691l0 76.9958 15.8267 0c45.5077,0 82.169,12 109.842,35.8345 27.496,23.8346 41.3266,52.6651 41.3266,86.8343 0,31.9959 -11.5039,58.9958 -34.3345,80.669 -22.996,21.8267 -52.1691,32.6692 -87.4957,32.6692 -27.8385,0 -53.5037,-7.49997 -76.6651,-22.6771 -23.3385,-15.1653 -40.1691,-35.3266 -50.6691,-60.6612 -7.83068,-19.8306 -11.8346,-60.1651 -11.8346,-121.003l0 -478.663 -67.9958 0z"
     id="path40" /></glyph>
   <glyph
   unicode="5"
   horiz-adv-x="554"
   id="glyph46"><path
     d="M491.012 717.998l0 -68.0084 -254.837 0 -36.1656 -195.663c31.1577,9.16543 59.3154,13.6773 84.4967,13.6773 65.3155,0 119.316,-21.8269 161.836,-65.6698 42.4964,-43.8429 63.6619,-99.8276 63.6619,-168.332 0,-47.1736 -10.8426,-90.4968 -32.6695,-129.828 -21.8269,-39.4964 -51.4965,-69.6856 -88.6779,-90.6858 -37.3231,-20.9765 -80.4809,-31.4884 -129.332,-31.4884 -58.3233,0 -107.481,18.0001 -147.497,53.8351 -39.9924,35.8349 -63.9926,82.1581 -71.8352,139.159l74.0085 0c5.50398,-27.6616 14.8348,-50.15 27.9923,-67.3234 13.1812,-17.3387 30.8506,-31.1813 52.6776,-41.835 21.9923,-10.5119 45.0004,-15.8269 69.1659,-15.8269 47.1736,0 87.6621,17.8348 121.489,53.4807 33.8507,35.6696 50.6697,80.1739 50.6697,133.678 0,48.3311 -15.3308,87.4968 -45.8271,117.662 -30.6617,30.1656 -71.3391,45.1657 -122.505,45.1657 -42.331,0 -93.4968,-12.9922 -153.663,-39.0003l66.0005 357.003 311.01 0z"
     id="path44" /></glyph>
   <glyph
   unicode="2"
   horiz-adv-x="554"
   id="glyph50"><path
     d="M116.009 492.996l-69.0005 0c1.98427,71.0084 25.4884,129.166 70.8195,174.663 45.3311,45.4964 101.339,68.3391 168.001,68.3391 65.8352,0 119.174,-21.3309 159.993,-63.9926 40.8428,-42.6618 61.1816,-93.0007 61.1816,-151.017 0,-40.8192 -9.82685,-78.9927 -29.3388,-114.662 -19.4883,-35.6696 -57.3312,-84.0007 -113.505,-144.828l-179.151 -193.49 331.987 0 0 -68.0084 -486.996 0 273.664 295.491c55.5122,59.8351 91.5125,104.009 108.332,133.017 16.6773,28.8191 25.0159,59.1501 25.0159,91.1582 0,40.5121 -15.0001,75.3313 -45.0004,104.505 -30.0002,29.1735 -66.6856,43.8192 -110.174,43.8192 -45.6618,0 -83.67,-15.3308 -114.001,-45.9925 -30.3309,-30.6617 -47.6697,-73.6541 -51.8272,-129.001z"
     id="path48" /></glyph>
   <glyph
   unicode="e"
   horiz-adv-x="649"
   id="glyph54"><path
     d="M524.331 176l57.6693 -30.3307c-19,-36.8346 -40.8346,-66.6693 -65.6693,-89.3386 -24.8268,-22.4961 -52.6614,-39.8268 -83.6614,-51.6614 -31.1654,-11.8346 -66.1654,-17.6693 -105.339,-17.6693 -87,0 -154.827,28.3307 -203.827,85 -49,56.6693 -73.5039,120.669 -73.5039,192 0,67.1654 20.8346,127.165 62.3307,179.669 52.5039,66.8346 123,100.331 211.173,100.331 90.8268,0 163.496,-34.3307 217.661,-102.835 38.5039,-48.3307 58.1654,-108.661 58.8346,-181.165l-480 0c1.33071,-61.4961 21.1654,-111.835 59.3307,-151 38.3386,-39.3307 85.6693,-59 141.835,-59 27.1654,0 53.6693,4.66929 79.3386,14 25.6614,9.33071 47.4961,21.6693 65.4961,37.1654 18,15.5039 37.5039,40.3386 58.3307,74.8346zm0.669291 143c-9.16535,36.5039 -22.4961,65.5039 -40,87.3307 -17.6693,21.8346 -40.8346,39.3386 -69.6693,52.6693 -28.8268,13.3307 -59.1654,20 -90.8268,20 -52.5039,0 -97.5039,-16.6693 -135.173,-50.1654 -27.6614,-24.5039 -48.3307,-61 -62.4961,-109.835l398.165 0z"
     id="path52" /></glyph>
   <glyph
   unicode="b"
   horiz-adv-x="682"
   id="glyph58"><path
     d="M81.0045 0l0 735.993 67.9984 0 0 -296.989c28.6634,35.1664 60.6616,61.4954 96.1615,78.8368 35.4999,17.4915 74.3347,26.1622 116.504,26.1622 75.1684,0 139.332,-27.1627 192.49,-81.5047 53.1748,-54.4921 79.8373,-120.339 79.8373,-197.992 0,-76.5024 -26.8292,-142 -80.4876,-196.175 -53.675,-54.1586 -118.172,-81.338 -193.674,-81.338 -43.3369,0 -82.5052,9.17095 -117.672,27.5128 -35.1664,18.3252 -66.1642,45.9881 -93.1601,83.1555l0 -97.6622 -67.9984 0zm273.828 53.0081c37.8343,0 73.0007,9.32102 104.999,27.8297 32.165,18.6587 57.6769,44.8209 76.6691,78.5033 18.9922,33.499 28.4966,69.1656 28.4966,106.666 0,37.5008 -9.50444,73.3175 -28.6634,107.333 -19.1589,33.8325 -44.8376,60.3282 -77.1693,79.3203 -32.3318,18.8421 -66.8312,28.3466 -103.498,28.3466 -37.1673,0 -72.6672,-9.50444 -106.333,-28.3466 -33.499,-18.9922 -59.3277,-44.4874 -77.3361,-76.5024 -17.9917,-31.9983 -26.9959,-67.9984 -26.9959,-108.167 0,-61.1619 20.1594,-112.319 60.6616,-153.322 40.3355,-41.1692 90.0087,-61.6621 149.17,-61.6621z"
     id="path56" /></glyph>
   <glyph
   unicode="s"
   horiz-adv-x="388"
   id="glyph62"><path
     d="M344 473.331l-44 -45.3307c-36.4961,35.3307 -72.3307,53 -107.165,53 -22.1654,0 -41.1654,-7.33071 -57,-22 -15.8346,-14.4961 -23.8346,-31.6693 -23.8346,-51.1654 0,-17.1654 6.50394,-33.6693 19.5039,-49.1654 13,-16 40.4961,-34.6693 82.1654,-56.1654 50.6614,-26.1732 85.1654,-51.6693 103.496,-76 17.8346,-24.6693 26.8346,-52.5039 26.8346,-83.3386 0,-43.6614 -15.3307,-80.4961 -46,-110.835 -30.6693,-30.1654 -69,-45.3307 -115,-45.3307 -30.6693,0 -59.8346,6.66929 -87.8346,20 -27.8346,13.3307 -50.8346,31.6693 -69.1654,55.1654l43 48.8346c34.8346,-39.3307 72,-59 111.165,-59 27.3386,0 50.6693,8.83465 70,26.3307 19.1654,17.5039 28.8346,38.1732 28.8346,61.8346 0,19.5039 -6.33071,36.8346 -19,52.1654 -12.8346,15 -41.4961,33.8346 -86.1654,56.5039 -48,24.6693 -80.6693,49 -97.8346,73 -17.3307,24 -26,51.3307 -26,82.1654 0,40.1654 13.8346,73.5039 41.3307,100.165 27.6693,26.5039 62.5039,39.8346 104.669,39.8346 49,0 98.3307,-23.4961 148,-70.6693z"
     id="path60" /></glyph>
   <glyph
   unicode="g"
   horiz-adv-x="672"
   id="glyph66"><path
     d="M535 531l68 0 0 -422.669c0,-74.3307 -6.49606,-128.835 -19.4961,-163.331 -17.8346,-48.6693 -48.8346,-86.1654 -93.1732,-112.504 -44.1654,-26.3307 -97.3307,-39.4961 -159.331,-39.4961 -45.4961,0 -86.3307,6.49606 -122.669,19.3307 -36.1654,13 -65.6614,30.3386 -88.4961,52.1654 -22.6693,21.6693 -43.6693,53.6693 -62.8346,95.5039l74 0c20.1654,-35.3307 46.1654,-61.5039 78.1654,-78.5039 31.8346,-17 71.5039,-25.4961 118.669,-25.4961 46.6693,0 86,8.66929 118,25.8346 32.1654,17.3307 55,39 68.6693,65 13.6614,26.1654 20.4961,68.3307 20.4961,126.835l0 27.3307c-25.6693,-32.4961 -57.1654,-57.4961 -94.3307,-74.8346 -37,-17.4961 -76.5039,-26.1654 -118.165,-26.1654 -48.8346,0 -94.6693,12.1654 -137.669,36.3307 -43,24.1732 -76.1654,56.8346 -99.6693,97.6693 -23.4961,41 -35.1654,86 -35.1654,135 0,49.1654 12.1654,94.8346 36.6693,137.331 24.3307,42.3386 58.1654,76 101.331,100.669 43.1654,24.6693 88.6693,37 136.504,37 39.6614,0 76.8268,-8.16535 111.165,-24.3307 34.3307,-16.1654 67.4961,-43.1654 99.3307,-81l0 92.3307zm-201.835 -53c-38.6614,0 -74.6614,-9.33071 -107.835,-28 -33.1654,-18.6693 -59.1654,-44.4961 -78,-77.4961 -18.8268,-33 -28.3307,-68.6693 -28.3307,-107.173 0,-58.1654 19.5039,-106.165 58.5039,-144.331 39,-38 89.6614,-57 151.661,-57 62.8346,0 113.339,18.8346 151.504,56.5039 38.1654,37.8268 57.3307,87.3307 57.3307,148.827 0,40 -8.83465,75.6693 -26.3307,107 -17.5039,31.3386 -42.5039,56.1732 -74.6693,74.3386 -32.1654,18.1654 -66.8346,27.3307 -103.835,27.3307z"
     id="path64" /></glyph>
   <glyph
   unicode="S"
   horiz-adv-x="497"
   id="glyph70"><path
     d="M13 134.335l61 36.6654c43,-79.3346 92.6654,-119 149,-119 24.1654,0 46.8346,5.66535 68,16.8346 21.1654,11.1654 37.3346,26.3307 48.3346,45.1654 11.1654,18.8346 16.6654,38.8346 16.6654,60 0,24 -8.16535,47.5 -24.5,70.6654 -22.5,31.8346 -63.5,70.3346 -123.335,115.169 -60,45.3307 -97.3307,78 -112,98.1654 -25.5,33.8346 -38.1654,70.5 -38.1654,109.835 0,31.1654 7.5,59.6654 22.5,85.3307 15,25.6693 36.1654,45.8346 63.5,60.6693 27.3346,14.8307 56.8346,22.1654 88.8346,22.1654 34,0 65.8307,-8.33465 95.3307,-25.1654 29.5,-16.6693 60.8346,-47.5 93.8346,-92.3346l-58.6654 -44.5c-27.1693,35.8346 -50.3346,59.5 -69.5,70.8346 -19.1693,11.5 -40,17.1654 -62.5,17.1654 -29.1693,0 -53,-8.83465 -71.5,-26.3346 -18.5,-17.6654 -27.8346,-39.1654 -27.8346,-65 0,-15.5 3.33465,-30.6654 9.83465,-45.3307 6.5,-14.6693 18.5,-30.5 35.8307,-47.8346 9.33465,-9 40.5,-33 93.1693,-71.6654 62.3307,-46 105.165,-86.8346 128.331,-122.5 23.1693,-35.8346 34.8346,-71.8346 34.8346,-108 0,-52 -19.8346,-97.3346 -59.3346,-135.669 -39.6654,-38.5 -87.8307,-57.6654 -144.5,-57.6654 -43.6654,0 -83.3307,11.6654 -118.831,35 -35.5,23.3346 -68.3346,62.5 -98.3346,117.335z"
     id="path68" /></glyph>
   <glyph
   unicode="B"
   horiz-adv-x="574"
   id="glyph74"><path
     d="M89.0086 717.998l141.497 0c57.0004,0 100.82,-6.66147 131.316,-20.1734 30.6853,-13.4883 54.8508,-34.3231 72.5203,-62.3155 17.8348,-27.8506 26.6695,-59.0083 26.6695,-93.0007 0,-32.0081 -7.84258,-61.0162 -23.3388,-87.166 -15.4962,-26.1734 -38.3389,-47.339 -68.3391,-63.6855 37.3231,-12.6615 66.0005,-27.4963 86.0086,-44.646 20.1498,-17.008 35.6696,-37.6775 46.8193,-62.0084 11.1733,-24.1655 16.8427,-50.5043 16.8427,-78.8274 0,-57.6855 -21.0002,-106.513 -63.1659,-146.34 -42.1657,-39.8271 -98.6701,-59.8351 -169.679,-59.8351l-197.151 0 0 717.998zm69.9927 -69.9927l0 -230.01 41.1736 0c49.9846,0 86.8353,4.6772 110.316,13.8426 23.5041,9.33078 42.1657,24.0002 55.843,43.9846 13.8426,20.008 20.6695,42.3547 20.6695,66.6856 0,32.8349 -11.504,58.654 -34.5121,77.4809 -23.1498,18.6852 -59.8351,28.016 -110.15,28.016l-83.3392 0zm0 -302.01l0 -276.002 89.1739 0c52.4886,0 90.9928,5.17327 115.489,15.3308 24.4963,10.3465 44.1736,26.5041 59.0083,48.3547 14.8348,21.8269 22.323,45.4964 22.323,70.8195 0,32.0081 -10.4883,60.0005 -31.3231,83.8353 -20.8348,23.6695 -49.5122,39.9924 -86.0086,48.8272 -24.4963,5.83469 -67.158,8.83472 -128.009,8.83472l-40.6539 0z"
     id="path72" /></glyph>
   <glyph
   unicode="d"
   horiz-adv-x="660"
   id="glyph78"><path
     d="M460 736l133 0 0 -736 -133 0 0 56.5039c-26,-24.6693 -52.1654,-42.3386 -78.3307,-53.1732 -26.1654,-10.8346 -54.6693,-16.3307 -85.1654,-16.3307 -68.8346,0 -128.173,26.5039 -178.339,79.6693 -50.1654,53 -75.1654,119 -75.1654,197.835 0,81.8268 24.3307,148.827 72.8346,201.165 48.4961,52.1654 107.331,78.3307 176.669,78.3307 32,0 61.8268,-6 89.8268,-17.8346 28,-12 53.8346,-30 77.6693,-53.8346l0 263.669zm-140.165 -314c-41.3307,0 -75.6693,-14.4961 -102.835,-43.6693 -27.3307,-29 -41,-66.3307 -41,-111.827 0,-45.8346 13.8346,-83.5039 41.6693,-113.173 27.8346,-29.4961 62,-44.3307 102.661,-44.3307 41.8346,0 76.6693,14.5039 104.173,43.6693 27.6614,29 41.4961,67.1654 41.4961,114.331 0,46.1654 -13.8346,83.5039 -41.4961,112.165 -27.5039,28.5039 -62.5039,42.8346 -104.669,42.8346z"
     id="path76" /></glyph>
   <glyph
   unicode="u"
   horiz-adv-x="600"
   id="glyph82"><path
     d="M67 531l135 0 0 -255.331c0,-49.6693 3.50394,-84.1654 10.3307,-103.504 6.83465,-19.3307 17.8346,-34.3307 33,-45.1654 15.1732,-10.6693 34,-16 56.1732,-16 22.1654,0 41.1654,5.33071 56.6614,15.8346 15.5039,10.4961 27,26 34.5039,46.4961 5.49606,15.3386 8.33071,48 8.33071,98l0 259.669 133 0 0 -224.669c0,-92.6614 -7.33071,-156 -22,-190.165 -17.8346,-41.6614 -44.3307,-73.4961 -79.1654,-95.8346 -34.8346,-22.1654 -79.1654,-33.3307 -132.835,-33.3307 -58.3307,0 -105.331,13 -141.331,39 -36,26 -61.3386,62.1654 -76,108.669 -10.5039,32.1654 -15.6693,90.6614 -15.6693,175.496l0 220.835z"
     id="path80" /></glyph>
   <glyph
   unicode=" "
   horiz-adv-x="279"
   id="glyph84" />
   <glyph
   unicode="1"
   horiz-adv-x="559"
   id="glyph88"><path
     d="M164.168 717.999l204.833 0 0 -717.999 -135.998 0 0 589.997 -148.004 0 79.1694 128.002z"
     id="path86" /></glyph>
   <glyph
   unicode="."
   horiz-adv-x="276"
   id="glyph92"><path
     d="M150.993 108.001c16.6773,0 30.6617,-5.83469 42.4964,-17.5041 11.6694,-11.8347 17.5041,-26.0081 17.5041,-42.9925 0,-16.6773 -5.83469,-30.827 -17.5041,-42.6618 -11.8347,-11.8347 -25.8191,-17.8348 -42.4964,-17.8348 -16.4883,0 -30.6617,6.00005 -42.4964,17.8348 -11.6694,11.8347 -17.5041,25.9845 -17.5041,42.6618 0,16.9844 5.83469,31.1577 17.5041,42.9925 11.8347,11.6694 26.0081,17.5041 42.4964,17.5041z"
     id="path90" /></glyph>
   <glyph
   unicode="a"
   horiz-adv-x="660"
   id="glyph96"><path
     d="M460 531l133 0 0 -531 -133 0 0 56.5039c-26,-24.6693 -52.1654,-42.3386 -78.3307,-53.1732 -26.1654,-10.8346 -54.6693,-16.3307 -85.1654,-16.3307 -68.8346,0 -128.173,26.5039 -178.339,79.6693 -50.1654,53 -75.1654,119 -75.1654,197.835 0,81.8268 24.3307,148.827 72.8346,201.165 48.4961,52.1654 107.331,78.3307 176.669,78.3307 32,0 61.8268,-6 89.8268,-17.8346 28,-11.8346 53.8346,-29.8346 77.6693,-53.4961l0 58.3307zm-140.165 -109c-41.3307,0 -75.6693,-14.4961 -102.835,-43.6693 -27.3307,-29 -41,-66.3307 -41,-111.827 0,-45.8346 13.8346,-83.5039 41.6693,-113.173 27.8346,-29.4961 62,-44.3307 102.661,-44.3307 41.8346,0 76.6693,14.5039 104.173,43.6693 27.6614,29 41.4961,67.1654 41.4961,114.331 0,46.1654 -13.8346,83.5039 -41.4961,112.165 -27.5039,28.5039 -62.5039,42.8346 -104.669,42.8346z"
     id="path94" /></glyph>
   <glyph
   unicode="r"
   horiz-adv-x="300"
   id="glyph100"><path
     d="M50 531l70 0 0 -77.6693c20.8346,30.6693 42.8346,53.3386 66,68.3386 23.1654,14.8346 47.3307,22.3307 72.3307,22.3307 19,0 39.1732,-6 60.6693,-18l-35.6693 -57.3307c-14.3307,6.16535 -26.3307,9.33071 -36.1654,9.33071 -22.8346,0 -44.8346,-9.33071 -66,-28 -21.1654,-18.6693 -37.3307,-47.8346 -48.4961,-87.1654 -8.50394,-30.1654 -12.6693,-91.3307 -12.6693,-183.331l0 -179.504 -70 0 0 531z"
     id="path98" /></glyph>
   <glyph
   unicode="o"
   horiz-adv-x="654"
   id="glyph104"><path
     d="M327.834 544.002c81.8312,0 149.834,-29.5043 203.664,-88.6658 49.0019,-53.8365 73.4996,-117.667 73.4996,-191.339 0,-73.9965 -25.829,-138.661 -77.6654,-193.995 -51.6644,-55.3333 -118.329,-83.0032 -199.498,-83.0032 -81.6655,0 -148.502,27.6698 -200.167,83.0032 -51.8364,55.3333 -77.6654,119.998 -77.6654,193.995 0,73.334 24.4978,137.005 73.4996,190.835 53.8301,59.4991 121.998,89.169 204.333,89.169zm-0.331223 -67.0026c-56.8366,0 -105.501,-20.8352 -146.337,-62.6648 -40.836,-41.836 -61.1679,-92.5004 -61.1679,-151.834 0,-38.1671 9.33794,-73.8308 27.8355,-106.998 18.6695,-33.0013 43.8361,-58.5054 75.4997,-76.4997 31.498,-18.0007 66.3337,-27.001 104.17,-27.001 37.8295,0 72.6652,9.00034 104.163,27.001 31.67,17.9943 56.8366,43.4985 75.4997,76.4997 18.5039,33.1669 27.8355,68.8307 27.8355,106.998 0,59.3335 -20.504,109.998 -61.4992,151.834 -40.836,41.8296 -89.5002,62.6648 -145.999,62.6648z"
     id="path102" /></glyph>
   <glyph
   unicode="l"
   horiz-adv-x="239"
   id="glyph108"><path
     d="M53 736l133 0 0 -736 -133 0 0 736z"
     id="path106" /></glyph>
   <glyph
   unicode="i"
   horiz-adv-x="200"
   id="glyph112"><path
     d="M99.8346 749c15.4961,0 28.6693,-5.49606 39.6693,-16.6693 11,-11 16.4961,-24.4961 16.4961,-40 0,-15.3307 -5.49606,-28.6614 -16.4961,-39.6614 -11,-11.1654 -24.1732,-16.6693 -39.6693,-16.6693 -15.3307,0 -28.3307,5.50394 -39.3307,16.6693 -11,11 -16.5039,24.3307 -16.5039,39.6614 0,15.5039 5.50394,29 16.5039,40 11,11.1732 24,16.6693 39.3307,16.6693zm-33.8346 -218l68 0 0 -531 -68 0 0 531z"
     id="path110" /></glyph>
   <glyph
   unicode="%"
   horiz-adv-x="859"
   id="glyph116"><path
     d="M659.836 750.001l99.0002 0 -568.838 -799 -98.4982 0 487.164 686.163c-29.3327,-4.99607 -56.8289,-8.82876 -82.6655,-11.3327 -25.6654,-2.49804 -49.5001,-3.83268 -71.3328,-3.83268 -22.5,0 -46.3347,1.16929 -71.4982,3.50198 7.1634,-22.6654 10.8307,-43.3347 10.8307,-61.8367 0,-47.4981 -16.5,-87.8329 -49.6655,-120.998 -33.0001,-33.1654 -73.3348,-49.6655 -120.833,-49.6655 -47.8347,0 -88.6655,16.6654 -122.168,49.8308 -33.502,33.1713 -50.3328,73.3348 -50.3328,120.502 0,30.502 7.50001,58.8308 22.5,85.1636 14.8347,26.1674 36.0001,47.3387 63.0001,63.3367 27.1654,16.1634 54.1655,24.1654 80.8348,24.1654 20.1674,0 47.8288,-3.83268 83.3328,-11.6634 62.6635,-13.5 117.998,-20.3386 165.833,-20.3386 43.1635,0 83.3328,3.83859 120.668,11.504 37.1635,7.66537 71.3328,19.1634 102.668,34.5001zm-467.334 -103.004c-22.8367,0 -42.1713,-7.99608 -58.3348,-24.1654 -16.1693,-16.1634 -24.1654,-35.4981 -24.1654,-57.9981 0,-23.002 7.99608,-42.5021 24.1654,-58.6655 16.1634,-16.1693 35.4981,-24.1654 58.3348,-24.1654 22.8308,0 42.1654,7.99608 58.3289,24.1654 16.1693,16.1634 24.1713,35.6635 24.1713,58.6655 0,22.8308 -8.00198,42.1654 -24.1713,58.1635 -16.1634,16.004 -35.4981,24 -58.3289,24zm474.999 -323.995c47.1674,0 87.6675,-16.8366 121.164,-50.3387 33.502,-33.4961 50.3328,-73.9962 50.3328,-121.329 0,-47.1674 -16.8307,-87.5021 -50.3328,-121.004 -33.4961,-33.4961 -73.9962,-50.3328 -121.164,-50.3328 -47.504,0 -88.0041,16.8366 -121.5,50.3328 -33.3367,33.502 -50.0021,73.8368 -50.0021,121.004 0,47.3328 16.6654,87.8329 50.0021,121.329 33.4961,33.502 73.9962,50.3387 121.5,50.3387zm0.330709 -89.0021c-23.1674,0 -42.6674,-8.16734 -58.6655,-24.3367 -16.1693,-16.1634 -24.1654,-35.4981 -24.1654,-58.1635 0,-22.6654 7.99608,-42.0001 24.1654,-58.1694 15.9981,-16.1634 35.4981,-24.3308 58.6655,-24.3308 22.6654,0 42.0001,8.16734 58.0041,24.3308 16.1634,16.1693 24.1654,35.504 24.1654,58.1694 0,22.6654 -8.00198,42.0001 -24.1654,58.1635 -16.004,16.1693 -35.3387,24.3367 -58.0041,24.3367z"
     id="path114" /></glyph>
  </font>
</defs>
</svg>
