<?xml version="1.0" encoding="UTF-8" standalone="no"?>
<!-- Creator: CorelDRAW X7 -->

<svg
   xml:space="preserve"
   width="1260px"
   height="411px"
   version="1.1"
   style="shape-rendering:geometricPrecision; text-rendering:geometricPrecision; image-rendering:optimizeQuality; fill-rule:evenodd; clip-rule:evenodd"
   viewBox="0 0 1260 411"
   id="svg209"
   sodipodi:docname="Sonderaktion_Kleidung_2025_de.svg"
   inkscape:version="1.2 (dc2aedaf03, 2022-05-15)"
   xmlns:inkscape="http://www.inkscape.org/namespaces/inkscape"
   xmlns:sodipodi="http://sodipodi.sourceforge.net/DTD/sodipodi-0.dtd"
   xmlns:xlink="http://www.w3.org/1999/xlink"
   xmlns="http://www.w3.org/2000/svg"
   xmlns:svg="http://www.w3.org/2000/svg"><sodipodi:namedview
   id="namedview211"
   pagecolor="#ffffff"
   bordercolor="#000000"
   borderopacity="0.25"
   inkscape:showpageshadow="2"
   inkscape:pageopacity="0.0"
   inkscape:pagecheckerboard="0"
   inkscape:deskcolor="#d1d1d1"
   showgrid="false"
   inkscape:zoom="1.547619"
   inkscape:cx="465.23077"
   inkscape:cy="231.32308"
   inkscape:window-width="3840"
   inkscape:window-height="2054"
   inkscape:window-x="-11"
   inkscape:window-y="-11"
   inkscape:window-maximized="1"
   inkscape:current-layer="Ebene_x0020_1" />
 <defs
   id="defs163">
  <font
   id="FontID1"
   horiz-adv-x="722"
   font-variant="normal"
   style="fill-rule:nonzero"
   font-weight="700">
	<font-face
   font-family="Arial"
   id="font-face2">
	</font-face>
   <missing-glyph
   id="missing-glyph6"><path
     d="M0 0z"
     id="path4" /></missing-glyph>
   <glyph
   unicode="%"
   horiz-adv-x="889"
   id="glyph10"><path
     d="M43.0041 540.501c0,63.997 14.1618,111.334 42.3316,142.165 28.1602,30.8312 66.3317,46.338 114.495,46.338 49.8352,0 88.833,-15.3339 117.003,-46.0017 28.1698,-30.6678 42.1683,-78.1684 42.1683,-142.502 0,-63.997 -13.9984,-111.334 -42.1683,-142.165 -28.1698,-30.8312 -66.5046,-46.338 -114.668,-46.338 -49.8352,0 -88.6696,15.3339 -116.83,46.0017 -28.1698,30.6678 -42.3316,78.1684 -42.3316,142.502zm106.992 0c0,-46.1651 5.34189,-77.1692 16.1698,-93.0027 8.16656,-11.6638 19.5037,-17.4957 33.8384,-17.4957 14.6614,0 26.1618,5.83188 34.3284,17.4957 10.5012,15.8335 15.6702,46.8376 15.6702,93.0027 0,46.1651 -5.16895,76.9962 -15.6702,92.5031 -8.16656,12 -19.667,17.9953 -34.3284,17.9953 -14.3347,0 -25.6718,-5.83188 -33.8384,-17.4957 -10.8279,-15.8335 -16.1698,-46.8376 -16.1698,-93.0027zm154.502 -568.498l-101.496 0 381.167 757.002 99.3342 0 -379.005 -757.002zm221.506 188.83c0,64.1699 14.1618,111.67 42.3316,142.665 28.1698,31.0041 66.6679,46.5013 115.494,46.5013 49.1723,0 87.8337,-15.4972 116.004,-46.5013 28.1698,-30.9945 42.1683,-78.495 42.1683,-142.665 0,-64.6695 -13.9984,-112.333 -42.1683,-143.338 -28.1698,-30.9945 -66.495,-46.4917 -114.668,-46.4917 -49.8352,0 -88.66,15.4972 -116.83,46.4917 -28.1698,31.0041 -42.3316,78.668 -42.3316,143.338zm107.001 -0.33627c0,-46.6647 5.33228,-77.8321 16.1602,-93.3294 8.16656,-12.1634 19.5037,-18.1682 33.8384,-18.1682 14.6614,0 25.9985,5.83188 33.8288,17.6686 10.8375,15.8335 16.1698,47.1643 16.1698,93.829 0,46.6743 -5.16895,78.0051 -15.6702,93.8386 -8.16656,11.8271 -19.667,17.6686 -34.3284,17.6686 -14.671,0 -25.9985,-5.84149 -33.8384,-17.6686 -10.8279,-15.8335 -16.1602,-47.1643 -16.1602,-93.8386z"
     id="path8" /></glyph>
  </font>
  <font
   id="FontID0"
   horiz-adv-x="739"
   font-variant="normal"
   style="fill-rule:nonzero"
   font-weight="400,700">
	<font-face
   font-family="Century Gothic"
   id="font-face13">
	</font-face>
   <missing-glyph
   id="missing-glyph17"><path
     d="M0 0z"
     id="path15" /></missing-glyph>
   <glyph
   unicode="D"
   horiz-adv-x="744"
   id="glyph21"><path
     d="M86.9997 0l0 718.001 148.995 0c107.338,0 185.338,-8.66926 233.834,-25.8306 69.673,-24.5078 124.169,-66.673 163.334,-127.003 39.1652,-60.1651 58.8423,-131.834 58.8423,-215.172 0,-71.9997 -15.5078,-135.165 -46.677,-189.826 -30.992,-54.673 -71.4918,-95.1729 -120.992,-121.169 -49.6652,-25.996 -119.338,-38.9998 -208.842,-38.9998l-228.495 0zm68.9997 67.9958l82.8304 0c98.9996,0 167.503,6.16533 205.842,18.5078 53.8226,17.6574 96.3303,49.1573 127.157,94.8303 30.8385,45.8384 46.1691,101.669 46.1691,167.669 0,69.1651 -16.6653,128.492 -50.1612,177.495 -33.3306,49.1691 -80.0076,82.8304 -139.665,101.007 -44.8345,13.6653 -118.677,20.492 -221.503,20.492l-50.6691 0 0 -580.002z"
     id="path19" /></glyph>
   <glyph
   unicode="0"
   horiz-adv-x="554"
   id="glyph25"><path
     d="M31.9963 358.834c0,94.6602 10.1694,167.83 30.5081,219.492 20.321,51.839 49.0043,91.0106 86.1562,117.674 37.0101,26.6636 78.5026,40.0043 124.513,40.0043 46.4886,0 88.6542,-13.5001 126.32,-40.3409 37.6657,-26.823 67.6777,-67.0045 89.5046,-120.668 22.0041,-53.6638 33.0062,-125.824 33.0062,-216.161 0,-90.1602 -10.8426,-162.001 -32.5101,-215.328 -21.6675,-53.3449 -51.5024,-93.5086 -89.4869,-120.668 -38.0023,-27.1774 -80.3451,-40.8369 -126.834,-40.8369 -46.0102,0 -87.3432,13.1635 -123.999,39.5082 -36.833,26.327 -65.5163,65.658 -86.1739,117.834 -20.6754,52.3173 -31.0042,125.328 -31.0042,219.492zm67.9966 -1.32875c0,-81.0006 7.17525,-142.336 21.6675,-183.846 14.51,-41.4925 36.0003,-72.9927 64.347,-94.5007 28.329,-21.4903 58.1638,-32.1558 89.8235,-32.1558 31.8369,0 61.6717,10.506 89.3275,31.5002 27.6734,20.9943 48.6677,52.4945 63.0005,94.5007 17.8407,50.9886 26.8408,112.501 26.8408,184.501 0,72.3372 -8.00794,131.334 -24.0061,177.503 -15.821,45.9925 -38.0023,79.6542 -66.1541,100.985 -28.0101,21.3486 -57.8449,32.014 -89.0086,32.014 -31.9963,0 -61.8312,-10.6654 -89.8235,-32.014 -28.0101,-21.3309 -49.3409,-52.654 -64.0103,-94.1641 -14.6694,-41.4925 -22.0041,-102.987 -22.0041,-184.324z"
     id="path23" /></glyph>
   <glyph
   unicode="ü"
   horiz-adv-x="607"
   id="glyph29"><path
     d="M67.0037 530.998l67.9958 0 0 -247.83c0,-60.4958 3.3307,-102 9.83854,-124.83 9.66138,-32.5038 28.4999,-58.1691 55.9958,-77.0076 27.496,-18.8267 60.4958,-28.3345 98.6689,-28.3345 38.1613,0 70.4997,9.16532 97.1689,27.5078 26.492,18.496 44.9998,42.4959 54.9919,72.4958 6.83856,20.5039 10.3346,63.8383 10.3346,130.169l0 247.83 70.0037 0 0 -260.326c0,-73.169 -8.5039,-128.173 -25.6653,-165.177 -17.0078,-37.1573 -42.8384,-66.1651 -77.1729,-86.9997 -34.3345,-20.9999 -77.3265,-31.4999 -129.165,-31.4999 -51.8266,0 -94.9957,10.5 -129.661,31.4999 -34.677,20.8346 -60.673,50.173 -77.669,87.6729 -17.1732,37.4999 -25.6653,94.0036 -25.6653,169.334l0 255.495zm134.492 209.999c15.6732,0 28.8424,-5.4921 40.0038,-16.4999 10.996,-11.1614 16.4999,-24.3306 16.4999,-39.992 0,-15.5078 -5.50392,-28.8424 -16.4999,-40.0038 -11.1614,-10.996 -24.3306,-16.4999 -40.0038,-16.4999 -15.496,0 -28.8306,5.50392 -39.992,16.4999 -11.0078,11.1614 -16.4999,24.496 -16.4999,40.0038 0,15.6614 5.4921,28.8306 16.4999,39.992 11.1614,11.0078 24.496,16.4999 39.992,16.4999zm199.003 0c15.6732,0 28.8306,-5.4921 40.0038,-16.4999 10.996,-11.1614 16.4999,-24.3306 16.4999,-39.992 0,-15.5078 -5.50392,-28.8424 -16.4999,-40.0038 -11.1732,-10.996 -24.3306,-16.4999 -40.0038,-16.4999 -15.496,0 -28.8306,5.50392 -40.0038,16.4999 -10.996,11.1614 -16.4999,24.496 -16.4999,40.0038 0,15.6614 5.50392,28.8306 16.4999,39.992 11.1732,11.0078 24.5078,16.4999 40.0038,16.4999z"
     id="path27" /></glyph>
   <glyph
   unicode="t"
   horiz-adv-x="338"
   id="glyph33"><path
     d="M134.999 728.997l67.9958 0 0 -197.999 108 0 0 -58.9958 -108 0 0 -472.002 -67.9958 0 0 472.002 -92.9996 0 0 58.9958 92.9996 0 0 197.999z"
     id="path31" /></glyph>
   <glyph
   unicode="-"
   horiz-adv-x="420"
   id="glyph37"><path
     d="M85.9987 326.999l248.004 0 0 -123.997 -248.004 0 0 123.997z"
     id="path35" /></glyph>
   <glyph
   unicode="n"
   horiz-adv-x="609"
   id="glyph41"><path
     d="M76.0036 530.998l67.9958 0 0 -95.161c27.496,36.3306 57.8384,63.4958 91.0036,81.3304 33.3306,17.8346 69.4958,26.8345 108.661,26.8345 39.8384,0 75.1651,-10.0039 106.004,-30.1652 30.8267,-20.1731 53.6691,-47.3384 68.3383,-81.5076 14.6574,-33.992 21.992,-87.165 21.992,-159.33l0 -272.999 -67.9958 0 0 253.003c0,60.9919 -2.66928,101.834 -7.83068,122.326 -8.33855,35.0077 -23.6692,61.3344 -46.1691,79.169 -22.4999,17.6692 -51.8384,26.5038 -88.0036,26.5038 -41.5038,0 -78.6611,-13.6653 -111.33,-41.0077 -32.8345,-27.1652 -54.5077,-60.9919 -64.8305,-101.326 -6.50785,-26.3385 -9.83854,-74.3383 -9.83854,-144.165l0 -194.503 -67.9958 0 0 530.998z"
     id="path39" /></glyph>
   <glyph
   unicode="k"
   horiz-adv-x="580"
   id="glyph45"><path
     d="M68.0029 736.003l133 0 0 -423.835 196.664 218.831 166.335 0 -227.671 -253.499 256.166 -277.5 -165.496 0 -225.999 244.836 0 -244.836 -133 0 0 736.003z"
     id="path43" /></glyph>
   <glyph
   unicode="I"
   horiz-adv-x="226"
   id="glyph49"><path
     d="M76.9958 718.001l71.9997 0 0 -718.001 -71.9997 0 0 718.001z"
     id="path47" /></glyph>
   <glyph
   unicode="ß"
   horiz-adv-x="554"
   id="glyph53"><path
     d="M79.0036 0l0 485.171c0,73.4997 7.15745,125.834 21.3306,156.992 14.1614,31.1692 37.4999,56.8344 70.0037,76.8422 32.492,19.996 70.6651,29.9999 114.826,29.9999 57.673,0 104.338,-16.6771 139.665,-50.173 35.5038,-33.4959 53.173,-75.6611 53.173,-126.33 0,-32.1731 -8.1732,-60.673 -24.3306,-85.8304 -16.3346,-25.0038 -38.9998,-44.9998 -68.0076,-59.8344 -15.8267,-8.1732 -38.1613,-14.1732 -66.8265,-17.9999 31.4999,-5.00785 55.8305,-11.8346 72.6611,-20.5039 35.1731,-18.496 62.8344,-43.9959 82.665,-76.4997 19.8306,-32.5038 29.8345,-70.0037 29.8345,-112.5 0,-62.3383 -19.1692,-113.338 -57.4958,-152.999 -38.3384,-39.4959 -87.3304,-59.3383 -147.33,-59.3383 -40.3345,0 -74.3383,8.00784 -102.177,23.9999l0 65.0076c34.4999,-16.0039 65.3383,-23.9999 92.6689,-23.9999 41.9998,0 77.0076,13.8307 104.669,41.492 27.8385,27.8385 41.6691,63.673 41.6691,107.834 0,48.8384 -16.6653,88.8422 -50.173,119.503 -33.3306,30.8385 -81.6611,47.1612 -144.826,49.1691l0 76.9958 15.8267 0c45.5077,0 82.169,12 109.842,35.8345 27.496,23.8346 41.3266,52.6651 41.3266,86.8343 0,31.9959 -11.5039,58.9958 -34.3345,80.669 -22.996,21.8267 -52.1691,32.6692 -87.4957,32.6692 -27.8385,0 -53.5037,-7.49997 -76.6651,-22.6771 -23.3385,-15.1653 -40.1691,-35.3266 -50.6691,-60.6612 -7.83068,-19.8306 -11.8346,-60.1651 -11.8346,-121.003l0 -478.663 -67.9958 0z"
     id="path51" /></glyph>
   <glyph
   unicode="5"
   horiz-adv-x="554"
   id="glyph57"><path
     d="M491 718.004l0 -67.9966 -254.837 0 -36.1597 -195.681c31.1636,9.17724 59.3331,13.6773 84.4908,13.6773 65.3391,0 119.34,-21.8447 161.842,-65.6757 42.5023,-43.8311 63.656,-99.8335 63.656,-168.326 0,-47.1618 -10.8249,-90.4968 -32.6518,-129.828 -21.8447,-39.5082 -51.5024,-69.6797 -88.672,-90.6739 -37.329,-20.9943 -80.5046,-31.5002 -129.332,-31.5002 -58.341,0 -107.505,18.0001 -147.509,53.841 -39.9865,35.8231 -63.9926,82.1522 -71.8234,139.164l74.0026 0c5.49217,-27.6734 14.8289,-50.1736 27.9923,-67.3411 13.1635,-17.3269 30.827,-31.1636 52.6717,-41.8291 22.0041,-10.506 45.0004,-15.8387 69.1659,-15.8387 47.1618,0 87.6621,17.8407 121.501,53.5044 33.8211,35.6637 50.6697,80.168 50.6697,133.672 0,48.3311 -15.3426,87.4849 -45.833,117.656 -30.6676,30.1715 -71.345,45.1775 -122.511,45.1775 -42.3251,0 -93.4909,-13.004 -153.657,-39.0121l65.9946 357.009 310.999 0z"
     id="path55" /></glyph>
   <glyph
   unicode="2"
   horiz-adv-x="554"
   id="glyph61"><path
     d="M116.009 493.002l-69.0064 0c2.00198,70.9907 25.4943,129.172 70.8313,174.669 45.337,45.4964 101.339,68.3332 168.007,68.3332 65.8174,0 119.162,-21.3309 159.999,-64.0103 40.8192,-42.6618 61.158,-92.9948 61.158,-150.999 0,-40.8192 -9.83275,-78.9987 -29.3388,-114.662 -19.4883,-35.6637 -57.3312,-83.9948 -113.493,-144.834l-179.169 -193.502 332.01 0 0 -67.9966 -487.014 0 273.669 295.496c55.5063,59.8292 91.5066,103.997 108.337,132.999 16.6714,28.8427 24.9982,59.1737 24.9982,91.17 0,40.5003 -15.006,75.3313 -45.0004,104.493 -29.9943,29.1794 -66.6678,43.8488 -110.162,43.8488 -45.6736,0 -83.6759,-15.3426 -114.007,-46.0102 -30.3309,-30.6676 -47.6579,-73.6659 -51.8213,-128.995z"
     id="path59" /></glyph>
   <glyph
   unicode="e"
   horiz-adv-x="649"
   id="glyph65"><path
     d="M524.337 175.995l57.6612 -30.3306c-18.9921,-36.8266 -40.8305,-66.6612 -65.669,-89.3264 -24.8267,-22.4999 -52.6651,-39.8384 -83.6572,-51.673 -31.1692,-11.8346 -66.1769,-17.6692 -105.342,-17.6692 -86.9997,0 -154.83,28.3345 -203.834,85.0036 -48.9919,56.6691 -73.4997,120.673 -73.4997,191.999 0,67.169 20.8346,127.169 62.3383,179.669 52.4998,66.8383 123,100.334 211.168,100.334 90.8264,0 163.499,-34.3345 217.664,-102.838 38.5038,-48.3305 58.1691,-108.661 58.8305,-181.169l-479.998 0c1.33464,-61.4998 21.1653,-111.826 59.3383,-150.992 38.3266,-39.3424 85.665,-59.0076 141.826,-59.0076 27.1652,0 53.6691,4.66534 79.3343,14.0078 25.6653,9.33067 47.5037,21.6613 65.5037,37.1573 17.9999,15.5078 37.4999,40.3345 58.3344,74.8344zm0.661415 143.007c-9.16532,36.4959 -22.4999,65.4919 -40.0038,87.3304 -17.6574,21.8385 -40.8305,39.3306 -69.6611,52.6651 -28.8306,13.3346 -59.1612,19.996 -90.8382,19.996 -52.4998,0 -97.4996,-16.6653 -135.165,-50.1612 -27.6613,-24.496 -48.3305,-61.0037 -62.4919,-109.83l398.16 0z"
     id="path63" /></glyph>
   <glyph
   unicode="s"
   horiz-adv-x="388"
   id="glyph69"><path
     d="M343.995 473.337l-43.9959 -45.3423c-36.4959,35.3384 -72.3304,53.0077 -107.161,53.0077 -22.1692,0 -41.1731,-7.33462 -56.9998,-22.0039 -15.8385,-14.5039 -23.8346,-31.6652 -23.8346,-51.1652 0,-17.1613 6.49604,-33.6613 19.4999,-49.1691 12.9921,-15.9921 40.4998,-34.6652 82.169,-56.1612 50.6573,-26.1731 85.1571,-51.673 103.5,-76.0036 17.8228,-24.6613 26.8227,-52.4998 26.8227,-83.3383 0,-43.6652 -15.3306,-80.4918 -45.9919,-110.822 -30.6731,-30.177 -68.9997,-45.3423 -115.003,-45.3423 -30.6613,0 -59.8344,6.6732 -87.8382,20.0078 -27.8267,13.3346 -50.8226,31.6652 -69.1651,55.1573l43.0038 48.8384c34.8306,-39.3306 71.9997,-58.9958 111.165,-58.9958 27.3306,0 50.6691,8.83461 70.0037,26.3267 19.1692,17.5039 28.8306,38.1731 28.8306,61.8305 0,19.4999 -6.33068,36.8384 -19.0039,52.1691 -12.8267,14.9999 -41.492,33.8384 -86.1611,56.5037 -47.9998,24.6613 -80.669,49.0037 -97.8303,73.0036 -17.3385,23.9999 -26.0078,51.3305 -26.0078,82.1572 0,40.1691 13.8425,73.4997 41.3384,100.169 27.6613,26.5038 62.5037,39.8384 104.669,39.8384 48.9919,0 98.3264,-23.5038 147.992,-70.6651z"
     id="path67" /></glyph>
   <glyph
   unicode="p"
   horiz-adv-x="682"
   id="glyph73"><path
     d="M76.9958 530.998l68.0076 0 0 -97.665c26.9999,37.1691 57.9919,64.8305 93.165,83.1729 35.1613,18.3306 74.3265,27.496 117.661,27.496 75.5076,0 140.007,-27.1652 193.676,-81.3304 53.6573,-54.177 80.4918,-119.503 80.4918,-195.672 0,-77.9997 -26.6692,-143.999 -79.8304,-198.495 -53.173,-54.3423 -117.33,-81.5076 -192.495,-81.5076 -42.177,0 -80.9997,8.83461 -116.503,26.3385 -35.5038,17.6692 -67.4997,43.8305 -96.165,78.6611l0 -285.991 -68.0076 0 0 724.993zm273.838 -52.9959c-59.1612,0 -108.838,-20.5039 -149.161,-61.6651 -40.5117,-41.1731 -60.673,-92.3382 -60.673,-153.507 0,-40.1573 8.99996,-76.3343 26.9999,-108.33 17.9999,-32.1613 43.8305,-57.4958 77.3383,-76.3343 33.6613,-18.8267 69.1651,-28.1692 106.334,-28.1692 36.6613,0 71.1611,9.50784 103.5,28.4999 32.3266,18.8385 57.9919,45.3423 77.1611,79.3343 19.1692,34.0038 28.6652,69.673 28.6652,106.842 0,37.6652 -9.49603,73.3225 -28.4999,106.996 -18.9921,33.6613 -44.5038,59.8344 -76.6651,78.3304 -31.9959,18.6732 -67.169,28.0038 -105,28.0038z"
     id="path71" /></glyph>
   <glyph
   unicode="m"
   horiz-adv-x="938"
   id="glyph77"><path
     d="M76.0036 530.998l67.9958 0 0 -91.8303c23.8346,33.8266 48.1652,58.6651 73.3344,74.3383 34.4999,20.3267 70.8304,30.4959 108.838,30.4959 25.8306,0 50.1612,-4.99604 73.3225,-15.1653 23.1731,-10.0039 41.9998,-23.5038 56.6691,-40.1691 14.6692,-16.8306 27.3306,-40.8305 38.1731,-72.1651 22.6653,41.6691 51.1652,73.3344 85.169,94.9957 34.1573,21.6731 70.8304,32.5038 110.161,32.5038 36.6613,0 69.1651,-9.33067 97.1689,-27.8385 28.1692,-18.496 49.0037,-44.3266 62.669,-77.4918 13.6653,-33.177 20.492,-82.8422 20.492,-149.173l0 -289.499 -69.9919 0 0 289.664c0,56.9998 -4.00392,95.9996 -12.1771,117.33 -8.16139,21.3424 -21.992,38.5038 -41.6573,51.5077 -19.6653,12.9921 -43.0038,19.4999 -70.3344,19.4999 -32.9999,0 -63.3305,-9.83854 -90.6729,-29.3385 -27.496,-19.4999 -47.4919,-45.4959 -60.1651,-77.9997 -12.6614,-32.492 -18.9921,-86.8343 -18.9921,-162.826l0 -207.838 -68.0076 0 0 271.664c0,64.0037 -4.00392,107.504 -12,130.499 -7.99603,23.0078 -21.8267,41.3384 -41.6691,55.1691 -19.996,13.8307 -43.4998,20.6692 -70.8304,20.6692 -31.6652,0 -61.1691,-9.50784 -88.665,-28.4999 -27.496,-19.0039 -47.8345,-44.6691 -61.0037,-76.8304 -13.1692,-32.1731 -19.8306,-81.5076 -19.8306,-147.838l0 -224.834 -67.9958 0 0 530.998z"
     id="path75" /></glyph>
   <glyph
   unicode="H"
   horiz-adv-x="680"
   id="glyph81"><path
     d="M80.9981 717.999l139.004 0 0 -270.996 239.996 0 0 270.996 138.002 0 0 -717.999 -138.002 0 0 314.997 -239.996 0 0 -314.997 -139.004 0 0 717.999z"
     id="path79" /></glyph>
   <glyph
   unicode="&amp;"
   horiz-adv-x="680"
   id="glyph85"><path
     d="M532.333 282.333l81.6684 -92.9986 -37.0033 -33.5041 -36.6647 -32.9961 115.165 -122.834 -165.834 0 -47.3318 48.8345c-75.5023,-44.5028 -145.833,-66.8318 -210.669,-66.8318 -55.0006,0 -99.4963,16.1629 -133.664,48.3336 -33.9979,32.1636 -51.0004,73.4987 -51.0004,123.998 0,38.1674 9.66531,73.9996 29.003,107.998 19.1613,33.8356 52.3267,68.8354 98.9954,104.837 -45.9984,62.1614 -68.9976,117.331 -68.9976,165.164 0,35.3313 15.3305,70.331 45.8291,104.837 30.668,34.4988 73.8373,51.8329 129.501,51.8329 56.1717,0 99.334,-17.1718 129.501,-51.339 30.1671,-34.1602 45.1659,-68.666 45.1659,-103.496 0,-27.331 -6.82921,-53.4979 -20.664,-78.5007 -13.8348,-25.1651 -45.4975,-62.3307 -95.1645,-111.335 58.1612,-68.666 95.6654,-111.335 112.661,-128.168 10.3355,7.66875 36.834,29.8355 79.5025,66.1686zm-259.665 157.834c36.1638,30.9995 54.3303,58.1682 54.3303,81.9999 0,12.3321 -4.00017,22.336 -12.1628,30.1671 -8.16966,7.83102 -18.999,11.6689 -32.3329,11.6689 -12.3321,0 -22.8369,-4.33881 -31.5005,-13.1716 -8.67056,-8.83283 -13.0023,-18.999 -13.0023,-30.6609 0,-23.3378 11.4996,-50.0056 34.6681,-80.0034zm81.9999 -295.667c-25.3344,24.6642 -61.0043,65.3361 -106.833,122.333 -48.5029,-40.0017 -72.8355,-74.8321 -72.8355,-104.83 0,-14.0041 6.66695,-26.8371 19.8315,-38.506 13.3339,-11.6619 30.0048,-17.4963 50.3372,-17.4963 29.1653,0 65.6677,12.833 109.5,38.499z"
     id="path83" /></glyph>
   <glyph
   unicode="7"
   horiz-adv-x="560"
   id="glyph89"><path
     d="M60 718l471 0 0 -71.4961 -324.165 -664.504 -115 55.8346 269.331 552.165 -301.165 0 0 128z"
     id="path87" /></glyph>
   <glyph
   unicode="E"
   horiz-adv-x="536"
   id="glyph93"><path
     d="M88.0036 718.001l410.998 0 0 -70.0037 -338.999 0 0 -224.999 335.999 0 0 -70.0037 -335.999 0 0 -282.991 335.999 0 0 -70.0037 -407.998 0 0 718.001z"
     id="path91" /></glyph>
   <glyph
   unicode="g"
   horiz-adv-x="672"
   id="glyph97"><path
     d="M535.002 530.998l67.9958 0 0 -422.668c0,-74.3265 -6.49604,-128.834 -19.4999,-163.334 -17.8346,-48.6612 -48.8266,-86.1611 -93.165,-112.5 -44.1612,-26.3267 -97.3343,-39.4959 -159.33,-39.4959 -45.5077,0 -86.3382,6.49604 -122.669,19.3346 -36.1652,12.9921 -65.669,30.3306 -88.4997,52.1691 -22.6653,21.6613 -43.6652,53.6573 -62.8344,95.4918l73.9958 0c20.1731,-35.3266 46.1691,-61.4998 78.1769,-78.4958 31.8306,-16.996 71.4918,-25.4999 118.665,-25.4999 46.6652,0 85.9957,8.66926 117.992,25.8306 32.1731,17.3385 55.0037,38.9998 68.669,65.0076 13.6653,26.1613 20.5039,68.3265 20.5039,126.826l0 27.3306c-25.6653,-32.492 -57.1651,-57.4958 -94.3343,-74.8344 -37.0038,-17.4921 -76.4997,-26.1613 -118.169,-26.1613 -48.8266,0 -94.665,12.1653 -137.669,36.3306 -42.992,24.1653 -76.169,56.8344 -99.661,97.665 -23.5038,41.0077 -35.1731,86.0075 -35.1731,134.999 0,49.1691 12.1653,94.8421 36.6731,137.338 24.3306,42.3305 58.1691,76.0036 101.326,100.665 43.1691,24.6731 88.6768,37.0038 136.499,37.0038 39.6731,0 76.8422,-8.1732 111.177,-24.3306 34.3227,-16.1692 67.4997,-43.1691 99.3303,-80.9997l0 92.3264zm-201.838 -52.9959c-38.6691,0 -74.669,-9.33067 -107.834,-28.0038 -33.1652,-18.6613 -59.1612,-44.5038 -77.9997,-77.5036 -18.8267,-32.9999 -28.3345,-68.6572 -28.3345,-107.161 0,-58.1691 19.4999,-106.169 58.4998,-144.33 38.9998,-38.0077 89.6689,-56.9998 151.677,-56.9998 62.8226,0 113.326,18.8267 151.499,56.4919 38.1613,37.8424 57.3305,87.3422 57.3305,148.842 0,39.992 -8.83461,75.6611 -26.3385,106.996 -17.4921,31.3345 -42.4959,56.1612 -74.669,74.3383 -32.1613,18.1653 -66.8265,27.3306 -103.83,27.3306z"
     id="path95" /></glyph>
   <glyph
   unicode="B"
   horiz-adv-x="574"
   id="glyph101"><path
     d="M89.0086 718.004l141.485 0c57.0123,0 100.843,-6.67919 131.334,-20.1616 30.6676,-13.5001 54.8331,-34.3349 72.5144,-62.345 17.823,-27.8329 26.6636,-58.9965 26.6636,-92.9948 0,-31.9963 -7.83077,-60.9985 -23.3329,-87.166 -15.5021,-26.1675 -38.3389,-47.339 -68.3332,-63.6737 37.329,-12.6674 65.9946,-27.4963 85.9967,-44.6637 20.1616,-16.9903 35.6637,-37.6657 46.8252,-61.9906 11.1792,-24.1833 16.8308,-50.5102 16.8308,-78.8392 0,-57.6678 -20.9943,-106.495 -63.1599,-146.34 -42.1657,-39.8271 -98.6642,-59.8292 -169.673,-59.8292l-197.151 0 0 718.004zm69.9986 -69.9986l0 -229.998 41.1558 0c49.9965,0 86.8294,4.65949 110.339,13.819 23.4923,9.33669 42.1657,24.0061 55.8252,44.0082 13.8367,20.0021 20.6754,42.3251 20.6754,66.6678 0,32.829 -11.4981,58.6599 -34.4944,77.4927 -23.1734,18.6734 -59.8469,28.0101 -110.18,28.0101l-83.3215 0zm0 -301.998l0 -276.008 89.168 0c52.4945,0 90.9928,5.17327 115.495,15.3426 24.5022,10.3288 44.1677,26.4864 58.9965,48.3311 14.8289,21.8269 22.3407,45.4964 22.3407,70.8313 0,31.9963 -10.506,59.9887 -31.3408,83.8353 -20.8348,23.6695 -49.5004,39.9865 -85.9967,48.8272 -24.5022,5.82879 -67.1639,8.84062 -128.003,8.84062l-40.6598 0z"
     id="path99" /></glyph>
   <glyph
   unicode="d"
   horiz-adv-x="685"
   id="glyph105"><path
     d="M605.998 736.001l0 -736.001 -67.9958 0 0 91.3343c-28.6652,-34.8306 -60.673,-61.0037 -96.3303,-78.3304 -35.5038,-17.3385 -74.5036,-26.0078 -116.669,-26.0078 -74.9997,0 -139.169,27.1652 -192.342,81.5076 -53.1612,54.4958 -79.665,120.496 -79.665,198.495 0,76.169 26.8345,141.496 80.5036,195.672 53.5037,54.1651 118.003,81.3304 193.499,81.3304 43.4998,0 82.8304,-9.33067 118.169,-27.8385 35.1613,-18.496 66.1651,-46.3345 92.8343,-83.4918l0 303.33 67.9958 0zm-273.66 -257.999c-38.0077,0 -73.169,-9.33067 -105.165,-28.0038 -32.1731,-18.496 -57.673,-44.6691 -76.6769,-78.3304 -18.9921,-33.6731 -28.4999,-69.3304 -28.4999,-106.996 0,-37.1691 9.50784,-72.8383 28.6652,-106.842 19.1692,-33.992 44.8345,-60.4958 77.1729,-79.3343 32.3385,-18.9921 67.0037,-28.4999 103.996,-28.4999 37.1691,0 72.6729,9.34248 106.004,28.1692 33.4959,18.8385 59.1612,44.1731 77.1729,76.3343 17.9999,31.9959 26.9999,68.173 26.9999,108.33 0,61.1691 -20.1731,112.334 -60.673,153.507 -40.3345,41.1613 -89.9996,61.6651 -148.995,61.6651z"
     id="path103" /></glyph>
   <glyph
   unicode="1"
   horiz-adv-x="560"
   id="glyph109"><path
     d="M164.165 718l204.835 0 0 -718 -136 0 0 590 -148 0 79.1654 128z"
     id="path107" /></glyph>
   <glyph
   unicode="u"
   horiz-adv-x="607"
   id="glyph113"><path
     d="M67.0037 530.998l67.9958 0 0 -247.83c0,-60.4958 3.3307,-102 9.83854,-124.83 9.66138,-32.5038 28.4999,-58.1691 55.9958,-77.0076 27.496,-18.8267 60.4958,-28.3345 98.6689,-28.3345 38.1613,0 70.4997,9.16532 97.1689,27.5078 26.492,18.496 44.9998,42.4959 54.9919,72.4958 6.83856,20.5039 10.3346,63.8383 10.3346,130.169l0 247.83 70.0037 0 0 -260.326c0,-73.169 -8.5039,-128.173 -25.6653,-165.177 -17.0078,-37.1573 -42.8384,-66.1651 -77.1729,-86.9997 -34.3345,-20.9999 -77.3265,-31.4999 -129.165,-31.4999 -51.8266,0 -94.9957,10.5 -129.661,31.4999 -34.677,20.8346 -60.673,50.173 -77.669,87.6729 -17.1732,37.4999 -25.6653,94.0036 -25.6653,169.334l0 255.495z"
     id="path111" /></glyph>
   <glyph
   unicode="S"
   horiz-adv-x="497"
   id="glyph117"><path
     d="M13.0039 134.338l60.9919 36.6613c43.0038,-79.3343 92.6689,-118.996 149.007,-118.996 24.1653,0 46.8305,5.65746 67.9958,16.8306 21.1653,11.1614 37.3345,26.3267 48.3305,45.1652 11.1732,18.8385 16.6653,38.8345 16.6653,59.9998 0,23.9999 -8.16139,47.5037 -24.496,70.6651 -22.4999,31.8306 -63.4958,70.3344 -123.33,115.169 -59.9998,45.3305 -97.3343,77.9997 -112.003,98.161 -25.4999,33.8384 -38.1613,70.5115 -38.1613,109.842 0,31.1692 7.49997,59.6691 22.4999,85.3343 14.9999,25.6653 36.1652,45.8266 63.4958,60.6612 27.3306,14.8346 56.8344,22.1692 88.8304,22.1692 34.0038,0 65.8344,-8.33855 95.3382,-25.1692 29.5038,-16.6653 60.8265,-47.5037 93.8264,-92.3264l-58.6651 -44.5038c-27.1652,35.8345 -50.3266,59.5037 -69.4958,70.8304 -19.1692,11.5039 -40.0038,17.1732 -62.5037,17.1732 -29.1613,0 -52.9959,-8.83461 -71.4918,-26.3385 -18.5078,-17.6692 -27.8385,-39.1652 -27.8385,-64.9958 0,-15.5078 3.3307,-30.6731 9.83854,-45.3423 6.49604,-14.6574 18.496,-30.4959 35.8345,-47.8345 9.33067,-8.99996 40.4998,-32.9999 93.165,-71.6572 62.3265,-46.0038 105.165,-86.8343 128.326,-122.503 23.1731,-35.8345 34.8306,-71.8344 34.8306,-108 0,-52.0037 -19.8306,-97.3343 -59.3265,-135.673 -39.6731,-38.492 -87.8382,-57.6612 -144.495,-57.6612 -43.677,0 -83.3383,11.6692 -118.842,34.9959 -35.492,23.3385 -68.3265,62.5037 -98.3264,117.342z"
     id="path115" /></glyph>
   <glyph
   unicode=" "
   horiz-adv-x="276"
   id="glyph119" />
   <glyph
   unicode="."
   horiz-adv-x="276"
   id="glyph123"><path
     d="M151.003 108c16.6653,0 30.6613,-5.83462 42.4959,-17.5039 11.6692,-11.8346 17.5039,-25.996 17.5039,-42.992 0,-16.6653 -5.83462,-30.8385 -17.5039,-42.6731 -11.8346,-11.8346 -25.8306,-17.8346 -42.4959,-17.8346 -16.4999,0 -30.6731,5.99998 -42.5077,17.8346 -11.6574,11.8346 -17.4921,26.0078 -17.4921,42.6731 0,16.996 5.83462,31.1574 17.4921,42.992 11.8346,11.6692 26.0078,17.5039 42.5077,17.5039z"
     id="path121" /></glyph>
   <glyph
   unicode="a"
   horiz-adv-x="683"
   id="glyph127"><path
     d="M605.005 530.998l0 -530.998 -68.0076 0 0 91.3343c-28.6652,-34.8306 -60.6612,-61.0037 -96.3303,-78.3304 -35.5038,-17.3385 -74.5036,-26.0078 -116.669,-26.0078 -74.9997,0 -139.169,27.1652 -192.33,81.5076 -53.173,54.4958 -79.665,120.496 -79.665,198.495 0,76.169 26.8345,141.496 80.4918,195.672 53.5037,54.1651 118.003,81.3304 193.499,81.3304 43.4998,0 82.8422,-9.16532 118.169,-27.496 35.1731,-18.3424 66.1651,-46.0038 92.8343,-83.1729l0 97.665 68.0076 0zm-273.672 -52.9959c-37.9959,0 -73.169,-9.33067 -105.165,-28.0038 -32.1731,-18.496 -57.673,-44.6691 -76.6651,-78.3304 -19.0039,-33.6731 -28.4999,-69.3304 -28.4999,-106.996 0,-37.1691 9.49603,-72.8383 28.6652,-106.842 19.1692,-33.992 44.8345,-60.4958 77.1611,-79.3343 32.3385,-18.9921 67.0037,-28.4999 104.007,-28.4999 37.1573,0 72.6611,9.34248 105.992,28.1692 33.5077,18.8385 59.173,44.1731 77.1729,76.3343 17.9999,31.9959 26.9999,68.173 26.9999,108.33 0,61.1691 -20.1731,112.334 -60.673,153.507 -40.3345,41.1613 -89.9996,61.6651 -148.995,61.6651z"
     id="path125" /></glyph>
   <glyph
   unicode="r"
   horiz-adv-x="300"
   id="glyph131"><path
     d="M49.9959 530.998l70.0037 0 0 -77.669c20.8346,30.6731 42.8384,53.3384 65.9997,68.3383 23.1731,14.8346 47.3384,22.3346 72.3304,22.3346 19.0039,0 39.1652,-5.99998 60.673,-17.9999l-35.6692 -57.3305c-14.3385,6.16533 -26.3385,9.33067 -36.1652,9.33067 -22.8306,0 -44.8345,-9.33067 -65.9997,-28.0038 -21.1653,-18.6613 -37.3345,-47.8345 -48.5077,-87.165 -8.49209,-30.1652 -12.6614,-91.3343 -12.6614,-183.33l0 -179.503 -70.0037 0 0 530.998z"
     id="path129" /></glyph>
   <glyph
   unicode="o"
   horiz-adv-x="654"
   id="glyph135"><path
     d="M327.837 544.002c81.8264,0 149.834,-29.5038 203.668,-88.665 48.9919,-53.8344 73.4997,-117.673 73.4997,-191.338 0,-73.9958 -25.8424,-138.661 -77.669,-193.995 -51.673,-55.3344 -118.334,-83.0075 -199.499,-83.0075 -81.6729,0 -148.499,27.6731 -200.172,83.0075 -51.8266,55.3344 -77.669,120 -77.669,193.995 0,73.3344 24.5078,136.996 73.4997,190.83 53.8344,59.5037 122.007,89.1729 204.342,89.1729zm-0.342518 -67.0037c-56.8226,0 -105.496,-20.8346 -146.326,-62.669 -40.8305,-41.8345 -61.1691,-92.4918 -61.1691,-151.83 0,-38.1613 9.33067,-73.8304 27.8385,-106.996 18.6613,-32.9999 43.8305,-58.4998 75.4958,-76.4997 31.4999,-17.9999 66.3304,-26.9999 104.161,-26.9999 37.8424,0 72.6729,8.99996 104.173,26.9999 31.6652,17.9999 56.8344,43.4998 75.4958,76.4997 18.5078,33.1652 27.8385,68.8344 27.8385,106.996 0,59.3383 -20.5039,109.996 -61.4998,151.83 -40.8305,41.8345 -89.5036,62.669 -146.007,62.669z"
     id="path133" /></glyph>
   <glyph
   unicode="l"
   horiz-adv-x="200"
   id="glyph139"><path
     d="M65.9997 736.001l67.9958 0 0 -736.001 -67.9958 0 0 736.001z"
     id="path137" /></glyph>
   <glyph
   unicode="G"
   horiz-adv-x="839"
   id="glyph143"><path
     d="M745.831 600.667l-96.1663 -95.1645c-60.828,64.3272 -131.829,96.4979 -212.827,96.4979 -70.5003,0 -129.67,-23.3308 -177.334,-70.1688 -47.6704,-46.8309 -71.5021,-103.666 -71.5021,-170.667 0,-69.1669 24.6642,-127.829 74.1689,-176 49.4977,-48.1643 110.495,-72.1653 182.999,-72.1653 47.1625,0 86.9949,10.004 119.328,29.8355 32.34,19.8315 58.5069,50.8311 78.3384,93.168l-207.832 0 0 127.998 360.996 0 1.00181 -30.1671c0,-62.8316 -16.3323,-122.333 -48.8345,-178.667 -32.6645,-56.1646 -74.8321,-99.1647 -126.496,-128.831 -51.8399,-29.5039 -112.668,-44.3334 -182.336,-44.3334 -74.5005,0 -141.001,16.1629 -199.501,48.4959 -58.4998,32.5023 -104.668,78.5007 -138.835,138.334 -33.9979,60.0025 -51.0004,124.499 -51.0004,193.835 0,95.0023 31.5005,177.665 94.332,247.834 74.5005,83.6649 171.669,125.501 291.173,125.501 62.5,0 121,-11.4996 175.499,-34.6681 45.8291,-19.4999 90.8328,-53.1663 134.828,-100.667z"
     id="path141" /></glyph>
   <glyph
   unicode="z"
   horiz-adv-x="424"
   id="glyph147"><path
     d="M31.9959 530.998l391.002 0 -301.003 -469.994 290.999 0 0 -61.0037 -408.991 0 302.326 472.002 -274.334 0 0 58.9958z"
     id="path145" /></glyph>
   <glyph
   unicode="%"
   horiz-adv-x="859"
   id="glyph151"><path
     d="M659.835 750l99 0 -568.835 -799 -98.4961 0 487.165 686.165c-29.3386,-5 -56.8346,-8.83465 -82.6693,-11.3307 -25.6693,-2.50394 -49.4961,-3.83465 -71.3307,-3.83465 -22.5039,0 -46.3386,1.16535 -71.5039,3.50394 7.16535,-22.6693 10.8346,-43.3386 10.8346,-61.8346 0,-47.5039 -16.4961,-87.8346 -49.6693,-121 -33,-33.1654 -73.3307,-49.6693 -120.827,-49.6693 -47.8346,0 -88.6693,16.6693 -122.173,49.8346 -33.4961,33.1654 -50.3307,73.3307 -50.3307,120.496 0,30.5039 7.50394,58.8346 22.5039,85.1732 14.8268,26.1654 36,47.3307 63,63.3307 27.1654,16.1654 54.1654,24.1654 80.8268,24.1654 20.1732,0 47.8346,-3.83465 83.3386,-11.6693 62.6614,-13.4961 118,-20.3307 165.835,-20.3307 43.1654,0 83.3307,3.83465 120.661,11.5039 37.1654,7.66142 71.3386,19.1654 102.669,34.4961zm-467.331 -103c-22.8346,0 -42.1732,-8 -58.3386,-24.1654 -16.1654,-16.1654 -24.1654,-35.5039 -24.1654,-58 0,-23 8,-42.5039 24.1654,-58.6693 16.1654,-16.1654 35.5039,-24.1654 58.3386,-24.1654 22.8268,0 42.1654,8 58.3307,24.1654 16.1654,16.1654 24.1654,35.6693 24.1654,58.6693 0,22.8346 -8,42.1654 -24.1654,58.1654 -16.1654,16 -35.5039,24 -58.3307,24zm475 -324c47.1654,0 87.6614,-16.8346 121.165,-50.3307 33.4961,-33.5039 50.3307,-74 50.3307,-121.339 0,-47.1654 -16.8346,-87.4961 -50.3307,-121 -33.5039,-33.4961 -74,-50.3307 -121.165,-50.3307 -47.5039,0 -88,16.8346 -121.504,50.3307 -33.3307,33.5039 -50,73.8346 -50,121 0,47.3386 16.6693,87.8346 50,121.339 33.5039,33.4961 74,50.3307 121.504,50.3307zm0.330709 -89c-23.1654,0 -42.6693,-8.16535 -58.6693,-24.3307 -16.1654,-16.1654 -24.1654,-35.5039 -24.1654,-58.1654 0,-22.6693 8,-42 24.1654,-58.1732 16,-16.1654 35.5039,-24.3307 58.6693,-24.3307 22.6693,0 42,8.16535 58,24.3307 16.1654,16.1732 24.1654,35.5039 24.1654,58.1732 0,22.6614 -8,42 -24.1654,58.1654 -16,16.1654 -35.3307,24.3307 -58,24.3307z"
     id="path149" /></glyph>
   <glyph
   unicode="i"
   horiz-adv-x="200"
   id="glyph155"><path
     d="M99.8382 749.005c15.496,0 28.6652,-5.50392 39.6613,-16.6771 10.996,-10.996 16.4999,-24.496 16.4999,-39.992 0,-15.3306 -5.50392,-28.6652 -16.4999,-39.6731 -10.996,-11.1614 -24.1653,-16.6653 -39.6613,-16.6653 -15.3425,0 -28.3345,5.50392 -39.3424,16.6653 -10.996,11.0078 -16.4999,24.3424 -16.4999,39.6731 0,15.496 5.50392,28.9959 16.4999,39.992 11.0078,11.1732 23.9999,16.6771 39.3424,16.6771zm-33.8384 -218.007l67.9958 0 0 -530.998 -67.9958 0 0 530.998z"
     id="path153" /></glyph>
  </font>
</defs>
</svg>
