<?xml version="1.0" encoding="UTF-8" standalone="no"?>
<!-- Creator: CorelDRAW X7 -->

<svg
   xml:space="preserve"
   width="1260px"
   height="411px"
   version="1.1"
   style="shape-rendering:geometricPrecision; text-rendering:geometricPrecision; image-rendering:optimizeQuality; fill-rule:evenodd; clip-rule:evenodd"
   viewBox="0 0 1260 411"
   id="svg228"
   sodipodi:docname="Sonderaktion_2025_02_de.svg"
   inkscape:version="1.2 (dc2aedaf03, 2022-05-15)"
   xmlns:inkscape="http://www.inkscape.org/namespaces/inkscape"
   xmlns:sodipodi="http://sodipodi.sourceforge.net/DTD/sodipodi-0.dtd"
   xmlns:xlink="http://www.w3.org/1999/xlink"
   xmlns="http://www.w3.org/2000/svg"
   xmlns:svg="http://www.w3.org/2000/svg"><sodipodi:namedview
   id="namedview230"
   pagecolor="#ffffff"
   bordercolor="#000000"
   borderopacity="0.25"
   inkscape:showpageshadow="2"
   inkscape:pageopacity="0.0"
   inkscape:pagecheckerboard="0"
   inkscape:deskcolor="#d1d1d1"
   showgrid="false"
   inkscape:zoom="1.547619"
   inkscape:cx="552.46156"
   inkscape:cy="205.47693"
   inkscape:window-width="3840"
   inkscape:window-height="2054"
   inkscape:window-x="-11"
   inkscape:window-y="-11"
   inkscape:window-maximized="1"
   inkscape:current-layer="Ebene_x0020_1" />
 <defs
   id="defs193">
  <font
   id="FontID1"
   horiz-adv-x="667"
   font-variant="normal"
   style="fill-rule:nonzero"
   font-weight="400">
	<font-face
   font-family="Arial"
   id="font-face2">
	</font-face>
   <missing-glyph
   id="missing-glyph6"><path
     d="M0 0z"
     id="path4" /></missing-glyph>
   <glyph
   unicode="f"
   horiz-adv-x="277"
   id="glyph10"><path
     d="M87.0046 0l0 450.996 -78.0014 0 0 68.0041 78.0014 0 0 55.002c0,34.8286 2.99361,60.6653 9.15955,77.4988 8.50051,22.6643 23.167,41.1621 44.502,55.3371 21.1675,14.1638 51.0031,21.1563 89.3392,21.1563 24.8313,0 52.1648,-2.99361 82.1567,-8.82445l-13.1585 -77.0073c-18.3415,3.17233 -35.4989,4.83669 -51.8408,4.83669 -26.6632,0 -45.4962,-5.66329 -56.6664,-17.001 -10.9915,-11.3266 -16.4984,-32.4941 -16.4984,-63.5025l0 -47.4956 101.001 0 0 -68.0041 -99.9955 0 0 -450.996 -87.9987 0z"
     id="path8" /></glyph>
   <glyph
   unicode="t"
   horiz-adv-x="277"
   id="glyph14"><path
     d="M257.004 78.5041l11.9968 -77.6663c-24.6638,-5.1718 -46.8366,-7.84147 -66.1722,-7.84147 -31.8239,0 -56.4988,5.00424 -74.1589,15.1691 -17.5037,10.1649 -29.8356,23.3345 -37.0068,39.8329 -7.16009,16.4984 -10.6675,51.1706 -10.6675,104.006l0 298.992 -64.9993 0 0 68.0041 64.9993 0 0 128.334 88.0099 52.835 0 -181.169 87.9987 0 0 -68.0041 -87.9987 0 0 -303.997c0,-25.1664 1.49681,-41.3297 4.65797,-48.501 3.00478,-7.16009 8.00903,-12.8345 15.0016,-17.1686 7.00371,-4.16648 17.001,-6.3335 30.0031,-6.3335 9.66221,0 22.4968,1.17287 38.3361,3.50744z"
     id="path12" /></glyph>
   <glyph
   unicode="c"
   horiz-adv-x="500"
   id="glyph18"><path
     d="M404.998 190.005l85.9993 -12.008c-9.49466,-59.1685 -33.4994,-105.335 -72.327,-138.834 -38.8387,-33.4994 -86.6695,-50.1653 -143.168,-50.1653 -70.8302,0 -127.832,23.167 -170.837,69.5009 -43.1616,46.3339 -64.6642,112.674 -64.6642,198.997 0,56.0073 9.33828,104.843 27.8361,146.843 18.4978,41.8324 46.6579,73.3323 84.6589,94.1647 37.8334,21 79.0067,31.4999 123.676,31.4999 56.1637,0 102.33,-14.175 137.997,-42.6701 35.834,-28.4952 58.8334,-68.9983 68.8307,-121.331l-84.994 -13.0021c-8.17658,34.8286 -22.5079,61.0004 -43.3403,78.6716 -20.6648,17.4925 -45.6637,26.3281 -74.9966,26.3281 -44.3345,0 -80.336,-15.8282 -108.172,-47.4956 -27.6574,-31.835 -41.4973,-81.8328 -41.4973,-150.507 0,-69.6685 13.3372,-120.169 40.0004,-151.669 26.8308,-31.4999 61.6706,-47.3281 104.497,-47.3281 34.6723,0 63.5025,10.5 86.5019,31.6675 23.167,21 37.8334,53.494 43.9994,97.337z"
     id="path16" /></glyph>
   <glyph
   unicode="A"
   horiz-adv-x="667"
   id="glyph22"><path
     d="M-1.49681 0l274.664 715.998 104.162 0 291.676 -715.998 -108.005 0 -82.8381 217.003 -301.495 0 -77.6663 -217.003 -100.498 0zm206.001 293.999l244.002 0 -74.6727 198.505c-22.4968,60.3302 -39.4978,110.16 -51.3382,149.491 -9.82977,-46.6579 -22.9994,-92.5003 -39.4978,-137.829l-78.4929 -210.167z"
     id="path20" /></glyph>
   <glyph
   unicode="k"
   horiz-adv-x="500"
   id="glyph26"><path
     d="M66.3286 0l0 715.998 88.0099 0 0 -407.835 208 210.837 113.657 0 -197.992 -192.831 217.997 -326.17 -108.34 0 -172.323 265.169 -61.0004 -59.336 0 -205.833 -88.0099 0z"
     id="path24" /></glyph>
   <glyph
   unicode="h"
   horiz-adv-x="556"
   id="glyph30"><path
     d="M66.0046 0l0 715.998 87.9987 0 0 -257.663c40.827,47.8307 92.3328,71.6679 154.662,71.6679 38.1685,0 71.3328,-7.50637 99.6716,-22.6643 28.16,-15.1691 48.3334,-36.0015 60.4977,-62.6759 12.1643,-26.6632 18.1627,-65.4908 18.1627,-116.159l0 -328.504 -87.9987 0 0 328.169c0,43.8318 -9.49466,75.8344 -28.3276,95.8291 -19.0005,20.0058 -45.6749,30.0031 -80.336,30.0031 -25.8366,0 -50.1653,-6.6686 -72.9972,-20.1734 -22.843,-13.4936 -39.0063,-31.8239 -48.8361,-54.9908 -9.67338,-22.9994 -14.4989,-54.8345 -14.4989,-95.5051l0 -283.332 -87.9987 0z"
     id="path28" /></glyph>
   <glyph
   unicode="e"
   horiz-adv-x="556"
   id="glyph34"><path
     d="M419.999 168l91.0035 -11.9968c-14.1638,-52.835 -40.6707,-94.0083 -79.3307,-123.174 -38.6712,-29.1654 -88.0099,-43.8318 -148.173,-43.8318 -75.6669,0 -135.662,23.3345 -179.996,70.0036 -44.3345,46.5015 -66.5073,112.003 -66.5073,196.171 0,86.9934 22.3404,154.662 67.1663,202.661 44.8371,48.1659 103,72.1706 174.501,72.1706 69.1658,0 125.676,-23.5021 169.508,-70.6738 43.8318,-47.1605 65.8259,-113.5 65.8259,-198.997 0,-5.16063 -0.167553,-13.0021 -0.491488,-23.3345l-386.5 0c3.32872,-56.8339 19.3244,-100.498 48.3334,-130.669 28.8303,-30.1595 64.9993,-45.3286 108.161,-45.3286 32.1701,0 59.6711,8.50051 82.3355,25.5015 22.8319,17.001 40.827,44.1669 54.1642,81.4977zm-288.001 141.001l289.006 0c-3.84255,43.6643 -15.0016,76.3371 -33.1755,98.1636 -27.8249,33.8345 -64.1616,50.8355 -108.664,50.8355 -40.3356,0 -74.1701,-13.5048 -101.66,-40.5031 -27.3335,-26.9983 -42.5026,-63.1674 -45.5073,-108.496z"
     id="path32" /></glyph>
   <glyph
   unicode="s"
   horiz-adv-x="500"
   id="glyph38"><path
     d="M30.9973 154.998l87.0046 14.0074c4.83669,-34.8398 18.4978,-61.5031 40.827,-80.1684 22.3404,-18.4978 53.6728,-27.8361 93.6732,-27.8361 40.5031,0 70.4951,8.16541 90.1658,24.6638 19.5031,16.3308 29.3329,35.6664 29.3329,57.8392 0,19.8271 -8.83562,35.4989 -26.3393,46.8254 -12.3319,7.84147 -42.3238,17.6712 -89.9982,29.8356 -64.3291,16.1744 -108.831,30.1707 -133.83,41.9999 -24.8313,11.9968 -43.6643,28.3388 -56.4988,49.3387 -12.8345,20.8324 -19.3356,43.9994 -19.3356,69.3334 0,23.167 5.33935,44.502 15.8393,64.1616 10.6564,19.6707 24.9989,36.0015 43.1616,49.0036 13.6723,9.99732 32.3377,18.4978 55.8286,25.5015 23.6696,6.99254 48.8361,10.5 75.8344,10.5 40.6707,0 76.3371,-5.84201 106.999,-17.6712 30.8409,-11.6617 53.5052,-27.6686 68.1717,-47.6632 14.4989,-20.1734 24.6638,-47.0042 30.1707,-80.6711l-85.9993 -11.9968c-3.84255,26.9983 -15.1691,48.1659 -33.8345,63.335 -18.6654,15.1691 -45.0047,22.6643 -79.1743,22.6643 -40.168,0 -68.9983,-6.6686 -86.1668,-19.9946 -17.1574,-13.3372 -25.8255,-29.009 -25.8255,-46.8366 0,-11.3377 3.49627,-21.6702 10.6675,-30.8409 7.16009,-9.32711 18.3303,-17.1574 33.6669,-23.3234 8.82445,-3.33989 34.4935,-10.8351 77.4988,-22.5079 61.9945,-16.4984 105.335,-30.1595 129.999,-40.6595 24.6638,-10.5 43.9994,-26.0042 57.9956,-45.9988 14.1638,-20.1734 21.1675,-45.1722 21.1675,-75.1754 0,-29.1654 -8.50051,-56.6664 -25.6691,-82.4918 -17.1686,-25.8366 -41.8324,-45.8425 -73.9913,-60.0063 -32.3377,-14.1638 -68.8419,-21.1675 -109.501,-21.1675 -67.3339,0 -118.84,14.0074 -154.171,41.8324 -35.3313,28.0037 -57.8281,69.3334 -67.669,124.168z"
     id="path36" /></glyph>
   <glyph
   unicode="b"
   horiz-adv-x="556"
   id="glyph42"><path
     d="M147 0l-82.0004 0 0 715.998 87.9987 0 0 -255.496c37.1632,46.3339 84.5025,69.5009 142.174,69.5009 31.8239,0 62.1621,-6.3335 90.6573,-19.168 28.5063,-12.8345 51.8408,-30.9973 70.3387,-54.1642 18.3303,-23.3345 32.8292,-51.3382 43.1616,-84.1674 10.5,-32.6728 15.6718,-67.8366 15.6718,-105.167 0,-88.669 -22.0053,-157.332 -65.8371,-205.666 -43.9994,-48.501 -96.6668,-72.6732 -158.17,-72.6732 -61.1568,0 -109.166,25.5015 -143.995,76.3371l0 -65.3344zm-0.994147 263.337c0,-62.0057 8.48934,-106.832 25.3228,-134.5 27.6686,-45.1722 65.0105,-67.8366 112.171,-67.8366 38.5036,0 71.6679,16.6659 99.504,49.9978 27.9925,33.3318 41.9999,83.0057 41.9999,148.999 0,67.669 -13.3372,117.499 -40.168,149.669 -26.8308,32.1701 -59.336,48.3334 -97.337,48.3334 -38.5036,0 -71.6679,-16.6659 -99.4929,-49.9978 -28.0037,-33.3318 -41.9999,-81.4977 -41.9999,-144.665z"
     id="path40" /></glyph>
   <glyph
   unicode="d"
   horiz-adv-x="556"
   id="glyph46"><path
     d="M400.999 0l0 65.8371c-32.8292,-51.1706 -81.1626,-76.8397 -145,-76.8397 -41.3297,0 -79.3307,11.3377 -113.835,34.1696 -34.6611,22.6643 -61.4919,54.4994 -80.6599,95.17 -19.0005,40.827 -28.5063,87.6636 -28.5063,140.666 0,51.6621 8.66807,98.4987 25.8366,140.666 17.3361,41.9999 43.1616,74.3264 77.6663,96.6668 34.3372,22.4968 72.9972,33.6669 115.5,33.6669 31.3324,0 59.1685,-6.6686 83.4972,-19.8383 24.3398,-13.1697 44.1669,-30.4946 59.5036,-51.6621l0 257.495 87.9987 0 0 -715.998 -82.0004 0zm-278.004 258.836c0,-66.3398 14.0074,-115.835 42.1675,-148.664 28.0037,-32.8404 61.168,-49.1712 99.3365,-49.1712 38.5036,0 71.1653,15.6718 98.1636,47.0042 26.842,31.3324 40.3356,79.1631 40.3356,143.492 0,70.6738 -13.6611,122.671 -41.1621,155.835 -27.3335,33.1643 -61.168,49.6627 -101.336,49.6627 -39.1627,0 -71.8355,-15.8282 -98.1636,-47.6632 -26.1718,-31.835 -39.3414,-82.0004 -39.3414,-150.496z"
     id="path44" /></glyph>
   <glyph
   unicode=" "
   horiz-adv-x="277"
   id="glyph48" />
   <glyph
   unicode="u"
   horiz-adv-x="556"
   id="glyph52"><path
     d="M404.998 0l0 77.1637c-40.3356,-58.8334 -95.0025,-88.1663 -164.168,-88.1663 -30.4946,0 -59.0009,5.83084 -85.4966,17.5037 -26.4957,11.8292 -46.1664,26.4957 -59.0009,44.1669 -12.8345,17.8276 -21.8265,39.4978 -26.9983,65.1669 -3.49627,17.3361 -5.32818,44.6696 -5.32818,82.0004l0 321.165 87.9987 0 0 -287.163c0,-45.8425 1.83191,-76.8397 5.32818,-92.6679 5.49573,-23.167 17.1686,-41.1733 35.1638,-54.3318 17.8388,-13.1697 39.8329,-19.8383 66.1722,-19.8383 26.3281,0 51.0031,6.6686 74.0025,20.1622 22.9994,13.5048 39.3302,32.0026 48.9924,55.1696 9.50583,23.167 14.3425,57.0015 14.3425,101.168l0 277.501 87.9987 0 0 -519 -79.0067 0z"
     id="path50" /></glyph>
   <glyph
   unicode="r"
   horiz-adv-x="332"
   id="glyph56"><path
     d="M64.9993 0l0 519 78.9956 0 0 -79.4982c20.1734,36.8281 38.8387,61.168 56.0073,72.8296 17.1686,11.8292 36.0015,17.6712 56.4988,17.6712 29.668,0 59.8275,-9.33828 90.5009,-27.8361l-31.3324 -81.1626c-21.3351,11.9968 -42.6701,17.9952 -64.0052,17.9952 -19.168,0 -36.3255,-5.83084 -51.4946,-17.3361 -15.1691,-11.4941 -26.0042,-27.501 -32.5052,-47.9983 -9.82977,-31.1648 -14.6665,-65.3344 -14.6665,-102.498l0 -271.168 -87.9987 0z"
     id="path54" /></glyph>
   <glyph
   unicode="a"
   horiz-adv-x="556"
   id="glyph60"><path
     d="M404.998 64.9993c-32.6616,-27.8361 -64.1616,-47.3281 -94.3322,-58.8334 -30.1707,-11.4941 -62.4972,-17.1686 -97.1695,-17.1686 -56.9903,0 -100.833,13.8399 -131.495,41.6648 -30.6622,27.6686 -45.9988,63.1674 -45.9988,106.34 0,25.334 5.83084,48.501 17.3361,69.5009 11.6617,21 26.8308,37.6659 45.4962,50.3329 18.8329,12.667 39.8329,22.3292 63.335,28.8303 17.3361,4.50159 43.4967,8.83562 78.3365,13.1697 70.9977,8.33296 123.498,18.4978 156.997,30.1595 0.335106,12.008 0.502659,19.6707 0.502659,22.843 0,35.6664 -8.33296,60.8328 -25.0101,75.4993 -22.4968,19.8271 -55.9962,29.6569 -100.331,29.6569 -41.4973,0 -72.1594,-7.32764 -91.8301,-21.8265 -19.8383,-14.4989 -34.3372,-40.168 -43.8318,-77.1637l-85.9993 11.9968c7.8303,36.8281 20.6648,66.6637 38.66,89.328 18.0063,22.6755 43.9994,40.0004 78.0014,52.3323 33.8345,12.1755 73.3323,18.3415 118.002,18.3415 44.3345,0 80.5036,-5.1718 108.328,-15.6718 27.6686,-10.5 48.177,-23.5021 61.168,-39.3302 13.0021,-15.8393 22.1728,-35.834 27.501,-60.0063 2.83723,-14.9904 4.33403,-41.9999 4.33403,-80.8275l0 -116.673c0,-81.4977 1.83191,-132.992 5.5069,-154.83 3.49627,-21.8265 10.8239,-42.6701 21.4914,-62.6648l-91.9977 0c-8.83562,18.4978 -14.4989,40.168 -17.001,64.9993zm-6.99254 194.998c-32.0026,-13.0021 -80.0009,-23.9936 -144.006,-32.9967 -36.3366,-5.1718 -61.9945,-11.0026 -76.9961,-17.5037 -15.0016,-6.50105 -26.5069,-15.9957 -34.6723,-28.3276 -8.16541,-12.4994 -12.3319,-26.3393 -12.3319,-41.6648 0,-23.167 8.83562,-42.6701 26.6632,-58.1743 17.8388,-15.4931 43.843,-23.3345 78.0014,-23.3345 33.8345,0 64.0052,7.33881 90.5009,22.1728 26.3393,14.6665 45.8313,34.8286 58.1743,60.3302 9.49466,19.8383 14.1638,49.0036 14.1638,87.4961l0.502659 32.0026z"
     id="path58" /></glyph>
   <glyph
   unicode="l"
   horiz-adv-x="222"
   id="glyph64"><path
     d="M64.0052 0l0 715.998 87.9987 0 0 -715.998 -87.9987 0z"
     id="path62" /></glyph>
   <glyph
   unicode="z"
   horiz-adv-x="500"
   id="glyph68"><path
     d="M19.5031 0l0 71.6679 328.66 379.328c-37.3308,-1.99946 -70.16,-2.99361 -98.4987,-2.99361l-210.167 0 0 70.9977 423.004 0 0 -57.8392 -281.332 -328.996 -53.8403 -61.168c39.509,3.33989 76.5046,5.00424 111.009,5.00424l240.159 0 0 -76.002 -458.994 0z"
     id="path66" /></glyph>
   <glyph
   unicode="i"
   horiz-adv-x="222"
   id="glyph72"><path
     d="M66.0046 616.002l0 99.9955 87.9987 0 0 -99.9955 -87.9987 0zm0 -616.002l0 519 87.9987 0 0 -519 -87.9987 0z"
     id="path70" /></glyph>
  </font>
  <font
   id="FontID0"
   horiz-adv-x="739"
   font-variant="normal"
   style="fill-rule:nonzero"
   font-weight="400,700">
	<font-face
   font-family="Century Gothic"
   id="font-face75">
	</font-face>
   <missing-glyph
   id="missing-glyph79"><path
     d="M0 0z"
     id="path77" /></missing-glyph>
   <glyph
   unicode="f"
   horiz-adv-x="314"
   id="glyph83"><path
     d="M295.998 735.333l0 -66.5002c-25.1651,10.8364 -46.8309,16.17 -64.8352,16.17 -13.4962,0 -24.6642,-2.66678 -33.497,-8.00034 -8.83283,-5.33356 -14.498,-11.4996 -16.6638,-18.5052 -2.3352,-6.99853 -3.49927,-25.666 -3.49927,-55.8331l0 -71.6644 111.497 0 0 -59.0007 -111.666 0 -0.331584 -471.999 -68.0029 0 0 471.999 -69.9994 0 0 59.0007 69.9994 0 0 82.6702c0,37.9981 3.49927,65.1668 10.4978,81.3297 7.00559,16.17 19.0061,29.3346 35.8393,39.1692 16.6638,9.83463 36.9963,14.8296 60.828,14.8296 22.1667,0 48.8345,-4.50107 79.8341,-13.6655z"
     id="path81" /></glyph>
   <glyph
   unicode="D"
   horiz-adv-x="744"
   id="glyph87"><path
     d="M86.9997 0l0 718.001 148.995 0c107.338,0 185.338,-8.66926 233.834,-25.8306 69.673,-24.5078 124.169,-66.673 163.334,-127.003 39.1652,-60.1651 58.8423,-131.834 58.8423,-215.172 0,-71.9997 -15.5078,-135.165 -46.677,-189.826 -30.992,-54.673 -71.4918,-95.1729 -120.992,-121.169 -49.6652,-25.996 -119.338,-38.9998 -208.842,-38.9998l-228.495 0zm68.9997 67.9958l82.8304 0c98.9996,0 167.503,6.16533 205.842,18.5078 53.8226,17.6574 96.3303,49.1573 127.157,94.8303 30.8385,45.8384 46.1691,101.669 46.1691,167.669 0,69.1651 -16.6653,128.492 -50.1612,177.495 -33.3306,49.1691 -80.0076,82.8304 -139.665,101.007 -44.8345,13.6653 -118.677,20.492 -221.503,20.492l-50.6691 0 0 -580.002z"
     id="path85" /></glyph>
   <glyph
   unicode="A"
   horiz-adv-x="739"
   id="glyph91"><path
     d="M301.501 717.999l137.664 0 276.336 -717.999 -142.165 0 -56.0024 147.999 -294.333 0 -57.3358 -147.999 -142.165 0 278.001 717.999zm68.9976 -190.83l-97.3304 -247.171 194.167 0 -96.8366 247.171z"
     id="path89" /></glyph>
   <glyph
   unicode="R"
   horiz-adv-x="607"
   id="glyph95"><path
     d="M91.0019 717.999l143.33 0c79.8333,0 134.004,-3.33544 162.331,-9.83625 42.8411,-9.66617 77.4995,-30.5009 104.174,-62.6648 26.8347,-31.9938 40.1671,-71.4994 40.1671,-118.328 0,-39.0048 -9.16538,-73.3325 -27.6662,-102.841 -18.3402,-29.6599 -44.6742,-51.997 -79.0018,-67.1624 -34.167,-15.1654 -81.5058,-22.8379 -141.837,-23.1686l258.502 -333.998 -88.1672 0 -258.502 333.998 -41.3293 0 0 -333.998 -72.0002 0 0 717.999zm72.0002 -69.9971l0 -243.998 123.997 -1.00158c48.1702,0 83.6696,4.49765 106.668,13.663 22.9985,9.16538 40.9986,23.6694 54.0002,43.6631 12.8315,20.0032 19.3323,42.3403 19.3323,67.1719 0,24.0001 -6.50081,45.997 -19.6631,65.6695 -13.0016,19.6631 -30.1702,33.6662 -51.5057,42.1608 -21.1654,8.50396 -56.4947,12.6709 -105.827,12.6709l-127.002 0z"
     id="path93" /></glyph>
   <glyph
   unicode="0"
   horiz-adv-x="560"
   id="glyph99"><path
     d="M277.832 736.003c52.3332,0 97.5005,-12.8349 135.336,-38.5047 37.9951,-25.829 67.1618,-64.9961 87.8314,-117.833 20.6696,-52.9957 31.0012,-126.502 31.0012,-220.83 0,-95.3349 -10.5036,-169.503 -31.5044,-222.671 -20.9944,-52.9957 -49.1611,-91.9971 -84.6657,-116.832 -35.3326,-24.829 -80.1623,-37.3326 -134.164,-37.3326 -54.0021,0 -99.335,12.5037 -135.999,37.4982 -36.8358,25.1666 -65.6649,63.168 -86.5001,114.336 -20.8352,51.0019 -31.1668,123.667 -31.1668,218.168 0,131.667 20.332,227.168 60.996,286.336 45.1673,65.1617 108.17,97.6662 188.835,97.6662zm4.16576 -130.005c-23.0009,0 -43.3329,-7.33149 -61.1616,-22.1665 -17.8351,-14.663 -31.3388,-40.1671 -40.836,-76.1621 -9.33157,-36.0014 -14.0005,-88.6722 -14.0005,-158.172 0,-90.5003 10.8348,-153.165 32.3324,-187.663 21.504,-34.4981 49.3331,-51.8364 83.6656,-51.8364 33.0013,0 59.1679,16.3382 78.4998,49.1675 23.6697,39.6703 35.5045,105.832 35.5045,198.67 0,93.9972 -10.6692,159 -31.8356,194.663 -21.1664,35.6702 -48.4987,53.4989 -82.1687,53.4989z"
     id="path97" /></glyph>
   <glyph
   unicode="t"
   horiz-adv-x="299"
   id="glyph103"><path
     d="M83.0032 727.002l132.999 0 0 -196.001 78.9966 0 0 -114.998 -78.9966 0 0 -416.003 -132.999 0 0 416.003 -68.0026 0 0 114.998 68.0026 0 0 196.001z"
     id="path101" /></glyph>
   <glyph
   unicode="n"
   horiz-adv-x="600"
   id="glyph107"><path
     d="M67.0026 531.001l132.999 0 0 -54.6709c30.1668,25.3385 57.6646,42.836 82.1624,52.8364 24.5041,9.83477 49.6707,14.835 75.3341,14.835 52.6708,0 97.5005,-18.3319 134.171,-55.0021 30.8292,-31.3324 46.333,-77.4998 46.333,-138.502l0 -350.497 -131.999 0 0 232.168c0,63.3336 -2.8345,105.329 -8.50351,125.998 -5.66901,20.8352 -15.663,36.6638 -29.6636,47.4986 -14.1661,10.8348 -31.67,16.3318 -52.3332,16.3318 -27.001,0 -50.1675,-8.99397 -69.4995,-26.9947 -19.3383,-18.0007 -32.67,-43.0016 -40.1671,-74.6716 -3.83454,-16.6631 -5.83462,-52.4988 -5.83462,-107.667l0 -212.664 -132.999 0 0 531.001z"
     id="path105" /></glyph>
   <glyph
   unicode="k"
   horiz-adv-x="580"
   id="glyph111"><path
     d="M68.0026 736.003l132.999 0 0 -423.838 196.664 218.836 166.338 0 -227.671 -253.5 256.169 -277.501 -165.503 0 -225.996 244.831 0 -244.831 -132.999 0 0 736.003z"
     id="path109" /></glyph>
   <glyph
   unicode="ß"
   horiz-adv-x="554"
   id="glyph115"><path
     d="M79.0036 0l0 485.171c0,73.4997 7.15745,125.834 21.3306,156.992 14.1614,31.1692 37.4999,56.8344 70.0037,76.8422 32.492,19.996 70.6651,29.9999 114.826,29.9999 57.673,0 104.338,-16.6771 139.665,-50.173 35.5038,-33.4959 53.173,-75.6611 53.173,-126.33 0,-32.1731 -8.1732,-60.673 -24.3306,-85.8304 -16.3346,-25.0038 -38.9998,-44.9998 -68.0076,-59.8344 -15.8267,-8.1732 -38.1613,-14.1732 -66.8265,-17.9999 31.4999,-5.00785 55.8305,-11.8346 72.6611,-20.5039 35.1731,-18.496 62.8344,-43.9959 82.665,-76.4997 19.8306,-32.5038 29.8345,-70.0037 29.8345,-112.5 0,-62.3383 -19.1692,-113.338 -57.4958,-152.999 -38.3384,-39.4959 -87.3304,-59.3383 -147.33,-59.3383 -40.3345,0 -74.3383,8.00784 -102.177,23.9999l0 65.0076c34.4999,-16.0039 65.3383,-23.9999 92.6689,-23.9999 41.9998,0 77.0076,13.8307 104.669,41.492 27.8385,27.8385 41.6691,63.673 41.6691,107.834 0,48.8384 -16.6653,88.8422 -50.173,119.503 -33.3306,30.8385 -81.6611,47.1612 -144.826,49.1691l0 76.9958 15.8267 0c45.5077,0 82.169,12 109.842,35.8345 27.496,23.8346 41.3266,52.6651 41.3266,86.8343 0,31.9959 -11.5039,58.9958 -34.3345,80.669 -22.996,21.8267 -52.1691,32.6692 -87.4957,32.6692 -27.8385,0 -53.5037,-7.49997 -76.6651,-22.6771 -23.3385,-15.1653 -40.1691,-35.3266 -50.6691,-60.6612 -7.83068,-19.8306 -11.8346,-60.1651 -11.8346,-121.003l0 -478.663 -67.9958 0z"
     id="path113" /></glyph>
   <glyph
   unicode="5"
   horiz-adv-x="560"
   id="glyph119"><path
     d="M166.669 718.002l336.331 0 0 -126.005 -234.168 0 -29.1667 -131.833c8.00031,2.33767 16.0006,4.00015 23.8353,5.17217 7.83469,1.16565 15.3318,1.66248 22.4977,1.66248 65.0025,0 119.17,-22.1665 162.337,-66.4994 43.1673,-44.3329 64.6649,-100.997 64.6649,-170.166 0,-69.8307 -23.8353,-128.667 -71.4995,-176.497 -47.8362,-47.8362 -105.832,-71.8371 -174.166,-71.8371 -61.3336,0 -113.832,17.5039 -157.834,52.4988 -44.0017,34.8357 -72.8372,82.6656 -86.5001,143.502l143.999 0c11.0004,-22.3321 25.4978,-39.3327 43.6641,-50.8363 18.0007,-11.4973 37.8358,-17.1663 59.6711,-17.1663 30.1668,0 55.8302,10.8348 76.9966,32.5044 21.1664,21.6632 31.67,49.4987 31.67,83.5 0,32.9949 -9.83477,59.9959 -29.5043,81.1623 -19.6632,21.1664 -43.4985,31.8356 -71.4995,31.8356 -15.0006,0 -29.6636,-3.66893 -44.1673,-11.166 -14.4974,-7.33149 -28.6635,-18.5039 -42.6641,-33.4981l-111.335 24.9946 86.8377 398.671z"
     id="path117" /></glyph>
   <glyph
   unicode="2"
   horiz-adv-x="560"
   id="glyph123"><path
     d="M174 485.999l-132.999 0c3.66256,77.6654 27.8291,138.668 72.9964,183.166 45.0017,44.4985 102.838,66.8369 173.503,66.8369 43.6641,0 82.1624,-9.17233 115.501,-27.6698 33.3325,-18.3319 59.9959,-44.8297 79.9967,-79.4999 20.0008,-34.6637 30.0011,-70.0027 30.0011,-105.832 0,-42.6704 -12.1661,-88.5002 -36.3326,-137.668 -24.3321,-49.1675 -68.837,-107.335 -133.336,-174.332l-80.4999 -85.0032 256.169 0 0 -125.998 -498 0 0 65.3337 222.168 226.499c53.6645,54.3333 89.5002,97.9974 107.163,130.999 17.8351,33.0013 26.6698,62.8368 26.6698,89.5002 0,27.6698 -9.16596,50.4987 -27.5042,68.6714 -18.4975,17.9943 -42.1672,26.9947 -70.9963,26.9947 -29.3323,0 -53.6708,-11.0004 -73.334,-32.8293 -19.4976,-21.8352 -29.8355,-51.6708 -31.1668,-89.169z"
     id="path121" /></glyph>
   <glyph
   unicode="e"
   horiz-adv-x="640"
   id="glyph127"><path
     d="M598.501 228.002l-427.5 0c6.16584,-37.8358 22.6697,-68.0026 49.3331,-90.5003 26.6698,-22.3384 60.8304,-33.5045 102.17,-33.5045 49.6643,0 92.1628,17.5039 127.833,52.5052l111.667 -52.8364c-27.8355,-39.6639 -61.3336,-69.0026 -100.169,-88.169 -39.0015,-18.9944 -85.1689,-28.4979 -138.668,-28.4979 -82.9968,0 -150.668,26.1666 -202.829,78.6654 -52.1676,52.3332 -78.3342,118.005 -78.3342,196.836 0,80.8311 26.1666,147.999 78.3342,201.333 52.1612,53.4989 117.495,80.1687 196.332,80.1687 83.5,0 151.496,-26.6698 203.829,-79.8374 52.3332,-53.3332 78.4998,-123.495 78.4998,-210.995l-0.496834 -25.1666zm-132.502 103.998c-8.83473,29.0011 -26.1666,52.6644 -51.9956,70.8307 -26.001,18.1663 -56.0021,27.1666 -90.3347,27.1666 -37.167,0 -69.6715,-10.166 -97.8381,-30.6636 -17.4975,-12.6693 -33.8293,-35.1669 -48.8299,-67.3338l288.998 0z"
     id="path125" /></glyph>
   <glyph
   unicode="s"
   horiz-adv-x="439"
   id="glyph131"><path
     d="M392.002 455.836l-82.3386 -82.8324c-33.3277,33.3277 -63.6641,49.9986 -90.995,49.9986 -14.8366,0 -26.5055,-3.16768 -34.9997,-9.50305 -8.50124,-6.33537 -12.6707,-14.1664 -12.6707,-23.5001 0,-7.16785 2.66678,-13.6655 8.00034,-19.6622 5.33356,-6.00378 18.6675,-14.1734 39.8324,-24.6712l48.6723 -24.3326c51.332,-25.1651 86.6633,-51.0004 105.832,-77.1673 19.1684,-26.3292 28.6644,-56.9971 28.6644,-92.3355 0,-47.0002 -17.3341,-86.3317 -52.0022,-117.663 -34.6611,-31.5005 -81.1604,-47.1695 -139.498,-47.1695 -77.3296,0 -139.336,30.1671 -185.496,90.6705l82.1622 89.3301c15.6691,-18.1666 34.005,-32.9961 55.1699,-44.1641 20.9956,-11.168 39.6631,-16.8332 55.9953,-16.8332 17.5034,0 31.8391,4.16243 42.5062,12.6637 10.8294,8.50124 16.1629,18.1666 16.1629,29.1653 0,20.5017 -19.3306,40.5026 -58.1682,59.8403l-44.8343 22.4983c-86.0001,43.1623 -129,97.1681 -129,161.996 0,41.836 16.17,77.6682 48.5029,107.334 32.3329,29.6662 73.668,44.5028 123.998,44.5028 34.4988,0 66.8388,-7.66875 97.3375,-22.8369 30.3293,-15.1682 55.9953,-36.9963 77.1673,-65.329z"
     id="path129" /></glyph>
   <glyph
   unicode="b"
   horiz-adv-x="682"
   id="glyph135"><path
     d="M80.9955 0l0 735.999 68.0034 0 0 -296.996c28.6678,35.1592 60.6711,61.4931 96.1704,78.8317 35.4993,17.4993 74.3341,26.1639 116.495,26.1639 75.1656,0 139.333,-27.1654 192.501,-81.4963 53.1687,-54.501 79.8333,-120.331 79.8333,-198.001 0,-76.4979 -26.8347,-141.997 -80.4947,-196.168 -53.6695,-54.1702 -118.167,-81.3357 -193.673,-81.3357 -43.3324,0 -82.4979,9.16538 -117.667,27.5056 -35.1686,18.3308 -66.1608,45.997 -93.1656,83.1593l0 -97.6633 -68.0034 0zm273.837 52.9986c37.8332,0 73.0018,9.33546 105.005,27.8363 32.1639,18.6615 57.6663,44.8348 76.6585,78.501 19.0016,33.4962 28.5072,69.1656 28.5072,106.668 0,37.493 -9.50554,73.3325 -28.6678,107.329 -19.1717,33.8363 -44.8348,60.3309 -77.1687,79.3325 -32.334,18.8316 -66.8317,28.3371 -103.503,28.3371 -37.1623,0 -72.6616,-9.50554 -106.328,-28.3371 -33.5056,-19.0016 -59.3388,-44.4946 -77.3388,-76.4979 -18.0001,-32.0033 -26.9954,-68.0034 -26.9954,-108.17 0,-61.1624 20.1638,-112.328 60.6616,-153.326 40.3371,-41.1686 90.0003,-61.6726 149.169,-61.6726z"
     id="path133" /></glyph>
   <glyph
   unicode="g"
   horiz-adv-x="672"
   id="glyph139"><path
     d="M535.002 530.998l67.9958 0 0 -422.668c0,-74.3265 -6.49604,-128.834 -19.4999,-163.334 -17.8346,-48.6612 -48.8266,-86.1611 -93.165,-112.5 -44.1612,-26.3267 -97.3343,-39.4959 -159.33,-39.4959 -45.5077,0 -86.3382,6.49604 -122.669,19.3346 -36.1652,12.9921 -65.669,30.3306 -88.4997,52.1691 -22.6653,21.6613 -43.6652,53.6573 -62.8344,95.4918l73.9958 0c20.1731,-35.3266 46.1691,-61.4998 78.1769,-78.4958 31.8306,-16.996 71.4918,-25.4999 118.665,-25.4999 46.6652,0 85.9957,8.66926 117.992,25.8306 32.1731,17.3385 55.0037,38.9998 68.669,65.0076 13.6653,26.1613 20.5039,68.3265 20.5039,126.826l0 27.3306c-25.6653,-32.492 -57.1651,-57.4958 -94.3343,-74.8344 -37.0038,-17.4921 -76.4997,-26.1613 -118.169,-26.1613 -48.8266,0 -94.665,12.1653 -137.669,36.3306 -42.992,24.1653 -76.169,56.8344 -99.661,97.665 -23.5038,41.0077 -35.1731,86.0075 -35.1731,134.999 0,49.1691 12.1653,94.8421 36.6731,137.338 24.3306,42.3305 58.1691,76.0036 101.326,100.665 43.1691,24.6731 88.6768,37.0038 136.499,37.0038 39.6731,0 76.8422,-8.1732 111.177,-24.3306 34.3227,-16.1692 67.4997,-43.1691 99.3303,-80.9997l0 92.3264zm-201.838 -52.9959c-38.6691,0 -74.669,-9.33067 -107.834,-28.0038 -33.1652,-18.6613 -59.1612,-44.5038 -77.9997,-77.5036 -18.8267,-32.9999 -28.3345,-68.6572 -28.3345,-107.161 0,-58.1691 19.4999,-106.169 58.4998,-144.33 38.9998,-38.0077 89.6689,-56.9998 151.677,-56.9998 62.8226,0 113.326,18.8267 151.499,56.4919 38.1613,37.8424 57.3305,87.3422 57.3305,148.842 0,39.992 -8.83461,75.6611 -26.3385,106.996 -17.4921,31.3345 -42.4959,56.1612 -74.669,74.3383 -32.1613,18.1653 -66.8265,27.3306 -103.83,27.3306z"
     id="path137" /></glyph>
   <glyph
   unicode="S"
   horiz-adv-x="520"
   id="glyph143"><path
     d="M459 620.335l-101.335 -89.3346c-35.5,49.3346 -71.6654,74 -108.5,74 -18,0 -32.6654,-4.83465 -44,-14.3346 -11.5,-9.66535 -17.1654,-20.5 -17.1654,-32.5 0,-12 4,-23.5 12.1654,-34.1654 11.1693,-14.3346 44.6693,-45 100.5,-92.1654 52.1693,-43.6693 83.8346,-71.1693 95,-82.5 27.6693,-28 47.3346,-54.6693 59,-80.1693 11.5,-25.6654 17.3346,-53.5 17.3346,-83.6654 0,-59 -20.3346,-107.5 -61.1654,-146 -40.6693,-38.3346 -93.8346,-57.5 -159.5,-57.5 -51.1693,0 -95.6693,12.5 -133.669,37.5 -38,25.1654 -70.6654,64.5 -97.6654,118.165l115.165 69.3346c34.6693,-63.3346 74.5,-95 119.5,-95 23.5,0 43.3346,6.83465 59.3346,20.5 16,13.6654 24,29.5 24,47.3346 0,16.1654 -6,32.5 -18.1654,48.8307 -12,16.1693 -38.6693,41.1693 -79.8346,74.6693 -78.3346,63.6654 -128.835,112.831 -151.665,147.5 -22.8346,34.6654 -34.3346,69.1654 -34.3346,103.665 0,49.8346 19,92.5 56.8346,128 38,35.6654 84.8307,53.5 140.5,53.5 35.8307,0 70,-8.33465 102.331,-24.8346 32.5,-16.6654 67.5,-46.8307 105.335,-90.8307z"
     id="path141" /></glyph>
   <glyph
   unicode="u"
   horiz-adv-x="607"
   id="glyph147"><path
     d="M67.0011 531l67.9958 0 0 -247.834c0,-60.4964 3.337,-102.001 9.83463,-124.831 9.66531,-32.5023 28.5021,-58.1682 56.0024,-76.998 27.5003,-18.8368 60.4964,-28.3398 98.6638,-28.3398 38.1674,0 70.5003,9.17146 97.1681,27.5003 26.4985,18.5052 45.0037,42.5062 55.0006,72.504 6.83627,20.5017 10.3355,63.8334 10.3355,130.164l0 247.834 69.9994 0 0 -260.336c0,-73.1671 -8.50124,-128.161 -25.666,-165.164 -17.0025,-37.1656 -42.8378,-66.1686 -77.1673,-87.0019 -34.3366,-20.9956 -77.3366,-31.5005 -129.169,-31.5005 -51.8329,0 -94.9952,10.5049 -129.663,31.5005 -34.6681,20.8333 -60.6657,50.1679 -77.6682,87.6651 -17.1647,37.5042 -25.666,94.0005 -25.666,169.333l0 255.503z"
     id="path145" /></glyph>
   <glyph
   unicode="1"
   horiz-adv-x="559"
   id="glyph151"><path
     d="M164.164 717.999l204.832 0 0 -717.999 -135.997 0 0 589.996 -147.997 0 79.1625 128.004z"
     id="path149" /></glyph>
   <glyph
   unicode=" "
   horiz-adv-x="279"
   id="glyph153" />
   <glyph
   unicode="d"
   horiz-adv-x="660"
   id="glyph157"><path
     d="M459.998 736.003l132.999 0 0 -736.003 -132.999 0 0 56.499c-26.001,-24.6634 -52.1676,-42.3328 -78.3342,-53.1676 -26.1666,-10.8284 -54.6645,-16.3318 -85.1625,-16.3318 -68.837,0 -128.171,26.4978 -178.338,79.6655 -50.1612,53.002 -75.1621,119.005 -75.1621,197.836 0,81.8312 24.3321,148.834 72.8308,201.167 48.4987,52.1676 107.335,78.3342 176.669,78.3342 32.0012,0 61.8304,-6.00023 89.8315,-17.8351 28.0011,-12.0005 53.8365,-30.0011 77.6654,-53.8365l0 263.672zm-140.165 -314.006c-41.3328,0 -75.6653,-14.4974 -102.832,-43.6641 -27.3323,-29.0011 -41.0016,-66.3337 -41.0016,-111.832 0,-45.8361 13.8349,-83.5 41.664,-113.17 27.8355,-29.4979 62.0024,-44.3329 102.666,-44.3329 41.836,0 76.6717,14.5037 104.17,43.6705 27.6635,29.0011 41.4984,67.1682 41.4984,114.329 0,46.1674 -13.8349,83.5 -41.4984,112.17 -27.4979,28.4979 -62.4992,42.8297 -104.666,42.8297z"
     id="path155" /></glyph>
   <glyph
   unicode="."
   horiz-adv-x="276"
   id="glyph161"><path
     d="M150.999 108.001c16.6714,0 30.6676,-5.82879 42.5023,-17.5041 11.6576,-11.8347 17.5041,-25.9904 17.5041,-42.9984 0,-16.6714 -5.8465,-30.827 -17.5041,-42.6618 -11.8347,-11.8347 -25.8309,-17.8407 -42.5023,-17.8407 -16.4942,0 -30.6676,6.00595 -42.5023,17.8407 -11.6576,11.8347 -17.5041,25.9904 -17.5041,42.6618 0,17.008 5.8465,31.1636 17.5041,42.9984 11.8347,11.6753 26.0081,17.5041 42.5023,17.5041z"
     id="path159" /></glyph>
   <glyph
   unicode="a"
   horiz-adv-x="660"
   id="glyph165"><path
     d="M459.998 531.001l132.999 0 0 -531.001 -132.999 0 0 56.499c-26.001,-24.6634 -52.1676,-42.3328 -78.3342,-53.1676 -26.1666,-10.8284 -54.6645,-16.3318 -85.1625,-16.3318 -68.837,0 -128.171,26.4978 -178.338,79.6655 -50.1612,53.002 -75.1621,119.005 -75.1621,197.836 0,81.8312 24.3321,148.834 72.8308,201.167 48.4987,52.1676 107.335,78.3342 176.669,78.3342 32.0012,0 61.8304,-6.00023 89.8315,-17.8351 28.0011,-11.8348 53.8365,-29.8355 77.6654,-53.4989l0 58.3334zm-140.165 -109.004c-41.3328,0 -75.6653,-14.4974 -102.832,-43.6641 -27.3323,-29.0011 -41.0016,-66.3337 -41.0016,-111.832 0,-45.8361 13.8349,-83.5 41.664,-113.17 27.8355,-29.4979 62.0024,-44.3329 102.666,-44.3329 41.836,0 76.6717,14.5037 104.17,43.6705 27.6635,29.0011 41.4984,67.1682 41.4984,114.329 0,46.1674 -13.8349,83.5 -41.4984,112.17 -27.4979,28.4979 -62.4992,42.8297 -104.666,42.8297z"
     id="path163" /></glyph>
   <glyph
   unicode="r"
   horiz-adv-x="319"
   id="glyph169"><path
     d="M36.0014 531.001l114.998 0 0 -67.4994c12.3317,26.3322 28.6699,46.333 49.0019,59.9959 20.4976,13.6693 42.8297,20.504 66.9962,20.504 17.1663,0 35.1669,-4.50336 54.0021,-13.6693l-41.3328 -114.998c-15.4974,7.83469 -28.3323,11.6629 -38.3327,11.6629 -20.332,0 -37.6702,-12.6629 -51.6644,-37.9951 -14.1725,-25.3385 -21.1728,-75.0029 -21.1728,-148.999l0.503204 -25.8354 0 -214.167 -132.999 0 0 531.001z"
     id="path167" /></glyph>
   <glyph
   unicode="o"
   horiz-adv-x="640"
   id="glyph173"><path
     d="M316.834 544.002c50.1675,0 97.3349,-12.5037 141.502,-37.5046 44.3329,-24.9946 78.6654,-58.8303 103.494,-101.666 24.8353,-42.9953 37.167,-89.1626 37.167,-138.833 0,-49.9955 -12.4973,-96.6661 -37.3326,-140.165 -25.001,-43.4985 -58.9959,-77.4998 -101.998,-101.998 -43.1673,-24.5041 -90.5003,-36.8358 -142.337,-36.8358 -76.3278,0 -141.496,27.001 -195.332,81.0031 -53.9957,54.1613 -80.9967,119.833 -80.9967,196.995 0,82.8376 30.498,151.834 91.5003,207.002 53.4989,48.0018 114.832,72.0028 184.332,72.0028zm2.00008 -125.005c-41.4984,0 -76.0029,-14.3318 -103.501,-42.9953 -27.4979,-28.8355 -41.3328,-65.4993 -41.3328,-110.335 0,-46.0018 13.6693,-83.3344 40.836,-111.832 27.1666,-28.4979 61.6648,-42.836 103.494,-42.836 41.6704,0 76.3341,14.5037 104.17,43.3329 27.6635,28.8355 41.4984,66.0025 41.4984,111.335 0,45.4986 -13.6629,82.3344 -40.8296,110.832 -27.1666,28.3323 -62.0024,42.4984 -104.335,42.4984z"
     id="path171" /></glyph>
   <glyph
   unicode="l"
   horiz-adv-x="239"
   id="glyph177"><path
     d="M52.997 736.003l133 0 0 -736.003 -133 0 0 736.003z"
     id="path175" /></glyph>
   <glyph
   unicode="%"
   horiz-adv-x="859"
   id="glyph181"><path
     d="M659.832 750.002l99.005 0 -568.84 -799.004 -98.4948 0 487.164 686.166c-29.3292,-4.99844 -56.8348,-8.83467 -82.668,-11.3292 -25.6631,-2.50394 -49.5025,-3.83623 -71.3294,-3.83623 -22.4977,0 -46.3372,1.17166 -71.4994,3.50552 7.16223,-22.6678 10.8284,-43.3419 10.8284,-61.8333 0,-47.5088 -16.4977,-87.8365 -49.6631,-121.002 -33.0048,-33.1655 -73.3325,-49.6726 -120.832,-49.6726 -47.8395,0 -88.668,16.6678 -122.174,49.8332 -33.4962,33.1749 -50.334,73.3325 -50.334,120.501 0,30.5009 7.50239,58.838 22.5072,85.1719 14.8347,26.1639 36.0001,47.3293 62.9955,63.3262 27.1654,16.167 54.1702,24.1702 80.8349,24.1702 20.1638,0 47.8301,-3.83623 83.3294,-11.6693 62.6742,-13.493 118.007,-20.3339 165.837,-20.3339 43.1718,0 83.3388,3.83623 120.671,11.5087 37.1623,7.66302 71.3294,19.1623 102.662,34.4977zm-467.331 -103.002c-22.8379,0 -42.1702,-8.00317 -58.3372,-24.1702 -16.167,-16.167 -24.1607,-35.4993 -24.1607,-57.997 0,-22.9985 7.99373,-42.5009 24.1607,-58.6679 16.167,-16.167 35.4993,-24.1607 58.3372,-24.1607 22.8284,0 42.1608,7.99373 58.3277,24.1607 16.167,16.167 24.1702,35.6694 24.1702,58.6679 0,22.8379 -8.00317,42.1702 -24.1702,58.1671 -16.167,15.9969 -35.4993,24.0001 -58.3277,24.0001zm475.003 -324.001c47.1592,0 87.6664,-16.8284 121.163,-50.334 33.4962,-33.4962 50.334,-74.0034 50.334,-121.333 0,-47.1687 -16.8378,-87.4963 -50.334,-121.002 -33.4962,-33.4962 -74.0034,-50.334 -121.163,-50.334 -47.5088,0 -88.0066,16.8378 -121.503,50.334 -33.3355,33.5056 -50.0033,73.8333 -50.0033,121.002 0,47.3293 16.6678,87.8365 50.0033,121.333 33.4962,33.5056 73.9939,50.334 121.503,50.334zm0.33071 -88.9987c-23.1686,0 -42.671,-8.16381 -58.6679,-24.3308 -16.167,-16.167 -24.1702,-35.4993 -24.1702,-58.1671 0,-22.6678 8.00317,-42.0001 24.1702,-58.1671 15.9969,-16.167 35.4993,-24.3402 58.6679,-24.3402 22.6678,0 42.0001,8.17325 57.997,24.3402 16.167,16.167 24.1702,35.4993 24.1702,58.1671 0,22.6678 -8.00317,42.0001 -24.1702,58.1671 -15.9969,16.167 -35.3292,24.3308 -57.997,24.3308z"
     id="path179" /></glyph>
   <glyph
   unicode="i"
   horiz-adv-x="239"
   id="glyph185"><path
     d="M119.833 749.003c23.3321,0 43.3329,-8.50351 60.0023,-25.3385 16.8287,-16.8287 25.1666,-37.167 25.1666,-61.1616 0,-23.6697 -8.3379,-43.8361 -24.8353,-60.5055 -16.4974,-16.6631 -36.3326,-24.9946 -59.4991,-24.9946 -23.6697,0 -43.8361,8.49714 -60.4991,25.4978 -16.835,17.0006 -25.1666,37.6639 -25.1666,62.0024 0,23.3321 8.33153,43.1609 24.829,59.6647 16.5038,16.4974 36.5046,24.8353 60.0023,24.8353zm-66.8306 -218.002l132.999 0 0 -531.001 -132.999 0 0 531.001z"
     id="path183" /></glyph>
  </font>
</defs>
</svg>
