<?xml version="1.0" encoding="UTF-8" standalone="no"?>
<!-- Creator: CorelDRAW X7 -->

<svg
   xml:space="preserve"
   width="1260px"
   height="411px"
   version="1.1"
   style="shape-rendering:geometricPrecision; text-rendering:geometricPrecision; image-rendering:optimizeQuality; fill-rule:evenodd; clip-rule:evenodd"
   viewBox="0 0 1260 411"
   id="svg1521"
   sodipodi:docname="Slideshow_ruestung_classic_kombinierbar_de_b.svg"
   inkscape:version="1.4.2 (ebf0e940d0, 2025-05-08)"
   xmlns:inkscape="http://www.inkscape.org/namespaces/inkscape"
   xmlns:sodipodi="http://sodipodi.sourceforge.net/DTD/sodipodi-0.dtd"
   xmlns:xlink="http://www.w3.org/1999/xlink"
   xmlns="http://www.w3.org/2000/svg"
   xmlns:svg="http://www.w3.org/2000/svg"><sodipodi:namedview
   id="namedview1"
   pagecolor="#ffffff"
   bordercolor="#000000"
   borderopacity="0.25"
   inkscape:showpageshadow="2"
   inkscape:pageopacity="0.0"
   inkscape:pagecheckerboard="0"
   inkscape:deskcolor="#d1d1d1"
   inkscape:zoom="0.7"
   inkscape:cx="630"
   inkscape:cy="213.57143"
   inkscape:window-width="1854"
   inkscape:window-height="1011"
   inkscape:window-x="66"
   inkscape:window-y="32"
   inkscape:window-maximized="1"
   inkscape:current-layer="Ebene_x0020_1" />
 <defs
   id="defs1509">
  <font
   id="FontID1"
   horiz-adv-x="667"
   font-variant="normal"
   style="fill-rule:nonzero"
   font-weight="400">
	<font-face
   font-family="Arial"
   id="font-face1377">
	</font-face>
   <missing-glyph
   id="missing-glyph1381"><path
     d="M0 0z"
     id="path1379" /></missing-glyph>
   <glyph
   unicode="3"
   horiz-adv-x="556"
   id="glyph1385"><path
     d="M42 190l88 12c10.1732,-50 27.1654,-86 51.3386,-108 24.1575,-22 53.8268,-32.9921 88.9921,-32.9921 41.6693,0 76.8346,14.3307 105.165,42.9921 28.3307,28.6614 42.5039,64.1732 42.5039,106.504 0,40.3307 -13.1654,73.6693 -39.6693,100 -26.3307,26.1575 -59.8268,39.3228 -100.661,39.3228 -16.6614,0 -37.3386,-3.32283 -62.1732,-9.82677l9.84252 77.0079c5.82677,-0.677165 10.6614,-1.00787 14.1575,-1.00787 37.6693,0 71.3386,9.82677 101.512,29.3386 30,19.4961 44.9921,49.4961 44.9921,90 0,32.1575 -10.9921,58.8346 -32.8346,80 -21.8268,21.1654 -50,31.6693 -84.5039,31.6693 -34.3307,0 -62.8346,-10.8346 -85.6535,-32.5039 -22.8346,-21.6693 -37.5118,-54.1732 -44,-97.4961l-88 16c10.8189,58.9921 35.1654,104.819 73.3228,137.323 38,32.5039 85.4961,48.6772 142.173,48.6772 38.9921,0 74.9921,-8.34646 107.827,-25.1811 33.0079,-16.6614 58.1732,-39.4961 75.4961,-68.3307 17.5118,-28.9921 26.1732,-59.6693 26.1732,-92.1575 0,-30.8346 -8.33071,-58.8346 -24.8346,-84.1732 -16.6614,-25.3386 -41.3386,-45.4961 -73.8268,-60.5039 42.3307,-9.65354 75.1654,-30 98.6614,-60.8346 23.3386,-30.6614 35.0079,-69.3228 35.0079,-115.496 0,-62.5039 -22.8346,-115.669 -68.3465,-159.165 -45.6535,-43.4961 -103.323,-65.1654 -172.992,-65.1654 -62.8346,0 -115.008,18.8346 -156.504,56.3307 -41.6693,37.4961 -65.3386,86 -71.1654,145.669z"
     id="path1383" /></glyph>
   <glyph
   unicode="0"
   horiz-adv-x="556"
   id="glyph1389"><path
     d="M42 353.339c0,84.4882 8.66142,152.835 26,204.488 17.4961,51.8425 43.3386,91.6693 77.6693,119.512 34.1575,27.8268 77.3386,41.6693 129.339,41.6693 38.3307,0 72,-7.66929 101.165,-23.1811 28.9921,-15.4961 52.9921,-37.8268 71.6535,-66.9921 18.6772,-29.0079 33.3386,-64.5039 44,-106.331 10.8346,-41.8425 16.1732,-98.3307 16.1732,-169.165 0,-84 -8.66142,-152 -25.8268,-203.669 -17.1654,-51.8425 -43.0079,-91.6693 -77.3386,-119.669 -34.1732,-28 -77.4961,-42 -129.827,-42 -68.8346,0 -123.008,24.5039 -162.346,73.6693 -47.1654,60 -70.6614,157.165 -70.6614,291.669zm90 -0.330709c0,-117.843 13.6693,-196.173 41.1654,-234.835 27.4961,-38.8346 61.4961,-58.1732 101.843,-58.1732 40.3307,0 74.3307,19.4961 101.827,58.3307 27.4961,39.0079 41.1654,117.165 41.1654,234.677 0,117.827 -13.6693,196.157 -41.1654,234.819 -27.3386,38.8346 -61.6693,58.1732 -102.835,58.1732 -40.3307,0 -72.6614,-17.1654 -96.8346,-51.3386 -30.1575,-43.4961 -45.1654,-124.157 -45.1654,-241.654z"
     id="path1387" /></glyph>
   <glyph
   unicode="t"
   horiz-adv-x="277"
   id="glyph1393"><path
     d="M257.008 78.5039l12 -77.6693c-24.6772,-5.16535 -46.8346,-7.84252 -66.1732,-7.84252 -31.8268,0 -56.5039,5.00787 -74.1732,15.1811 -17.4961,10.1575 -29.8268,23.3228 -36.9921,39.8268 -7.16535,16.5039 -10.6614,51.1654 -10.6614,104l0 299.008 -65.0079 0 0 68 65.0079 0 0 128.331 88 52.8346 0 -181.165 88 0 0 -68 -88 0 0 -304c0,-25.1811 1.49606,-41.3386 4.66142,-48.5039 2.99213,-7.16535 8,-12.8346 14.9921,-17.1654 7.00787,-4.17323 17.0079,-6.33071 30,-6.33071 9.66929,0 22.5039,1.16535 38.3465,3.49606z"
     id="path1391" /></glyph>
   <glyph
   unicode="n"
   horiz-adv-x="556"
   id="glyph1397"><path
     d="M66 0l0 519.008 79.0079 0 0 -73.6693c38,56.4882 92.9921,84.6614 164.819,84.6614 31.3386,0 60,-5.66929 86.1732,-16.8346 26.1732,-11.1654 45.8268,-26 58.8346,-44.1575 12.9921,-18.1732 22.1732,-39.8425 27.3386,-64.8346 3.16535,-16.3465 4.83465,-44.8346 4.83465,-85.5118l0 -318.661 -88 0 0 315.339c0,35.8268 -3.33858,62.6614 -10.1732,80.3307 -6.83465,17.6693 -19.0079,31.8268 -36.3307,42.5039 -17.3386,10.4882 -37.8425,15.8268 -61.1654,15.8268 -37.3386,0 -69.5118,-11.8268 -96.6772,-35.6693 -27.1654,-23.6693 -40.6614,-68.8346 -40.6614,-135.165l0 -283.165 -88 0z"
     id="path1395" /></glyph>
   <glyph
   unicode="2"
   horiz-adv-x="556"
   id="glyph1401"><path
     d="M503.008 84l0 -84 -474 0c-0.677165,21.1654 2.8189,41.4961 10.3307,61.1654 12.1575,32.1732 31.6693,64 58.4882,95.1654 26.8346,31.1654 65.1811,67.1654 115.008,108 77.4961,63.8425 130.173,114.331 157.669,151.669 27.6693,37.3386 41.4961,72.6614 41.4961,106 0,34.8346 -12.5039,64.1732 -37.4961,88.1732 -25.0079,23.8268 -57.6693,35.8268 -97.8425,35.8268 -42.4882,0 -76.4882,-12.6614 -102,-38 -25.4961,-25.1654 -38.3307,-60.1732 -38.6614,-104.992l-90 8.99213c6.17323,67.3386 29.4961,118.661 69.8268,154 40.5039,35.3386 94.6772,53.0079 162.835,53.0079 68.6772,0 123.165,-19.0079 163.165,-57.1811 40.1732,-38.1575 60.1732,-85.4961 60.1732,-141.827 0,-28.6614 -5.82677,-56.8346 -17.6693,-84.5039 -11.6693,-27.8268 -31.1654,-56.9921 -58.3307,-87.6693 -27.3386,-30.4882 -72.5039,-72.6614 -135.496,-126 -52.8346,-44.3307 -86.8346,-74.3307 -101.843,-90.1575 -14.9921,-15.8425 -27.3228,-31.6693 -37.1654,-47.6693l351.512 0z"
     id="path1399" /></glyph>
   <glyph
   unicode="V"
   horiz-adv-x="667"
   id="glyph1405"><path
     d="M281.008 0l-276.677 716 102.677 0 186 -520.331c14.8189,-41.6693 27.4961,-80.6614 37.4961,-117.165 10.9921,39.1654 23.8268,78.1575 38.5039,117.165l192.992 520.331 96.6614 0 -279.165 -716 -98.4882 0z"
     id="path1403" /></glyph>
   <glyph
   unicode="1"
   horiz-adv-x="556"
   id="glyph1409"><path
     d="M372 0l-88 0 0 560.331c-21.1654,-20.3307 -48.9921,-40.5039 -83.3386,-60.6614 -34.3307,-20.1732 -65.3228,-35.3386 -92.6614,-45.3386l0 85.0079c49.1654,22.9921 92.1732,50.9921 129.008,84 36.8189,32.8346 62.9921,64.6614 78.3307,95.6693l56.6614 0 0 -719.008z"
     id="path1407" /></glyph>
   <glyph
   unicode="u"
   horiz-adv-x="556"
   id="glyph1413"><path
     d="M405.008 0l0 77.1654c-40.3465,-58.8346 -95.0079,-88.1732 -164.173,-88.1732 -30.5039,0 -59.0079,5.84252 -85.4961,17.5118 -26.5039,11.8268 -46.1732,26.5039 -59.0079,44.1575 -12.8346,17.8425 -21.8268,39.5118 -26.9921,65.1654 -3.51181,17.3386 -5.33858,44.6772 -5.33858,82l0 321.181 88 0 0 -287.181c0,-45.8268 1.82677,-76.8189 5.33858,-92.6614 5.49606,-23.1654 17.1654,-41.1654 35.1654,-54.3307 17.8268,-13.1654 39.8268,-19.8268 66.1575,-19.8268 26.3465,0 51.0079,6.66142 74,20.1575 23.0079,13.4961 39.3386,32 49.0079,55.1654 9.49606,23.1654 14.3307,57.0079 14.3307,101.165l0 277.512 88 0 0 -519.008 -78.9921 0z"
     id="path1411" /></glyph>
   <glyph
   unicode=" "
   horiz-adv-x="277"
   id="glyph1415" />
   <glyph
   unicode="d"
   horiz-adv-x="556"
   id="glyph1419"><path
     d="M401.008 0l0 65.8268c-32.8346,-51.1654 -81.1811,-76.8346 -145.008,-76.8346 -41.3386,0 -79.3386,11.3386 -113.827,34.1732 -34.6772,22.6614 -61.5118,54.5039 -80.6772,95.1654 -18.9921,40.8346 -28.4882,87.6693 -28.4882,140.677 0,51.6535 8.66142,98.4882 25.8268,140.661 17.3386,42 43.1654,74.3307 77.6693,96.6614 34.3307,22.5039 72.9921,33.6693 115.496,33.6693 31.3386,0 59.1654,-6.66142 83.4961,-19.8268 24.3307,-13.1654 44.1732,-30.5039 59.5118,-51.6693l0 257.496 88 0 0 -716 -82 0zm-278 258.835c0,-66.3307 14,-115.827 42.1575,-148.661 28,-32.8346 61.1654,-49.1654 99.3386,-49.1654 38.5039,0 71.1654,15.6535 98.1575,46.9921 26.8346,31.3386 40.3465,79.1654 40.3465,143.496 0,70.6772 -13.6693,122.677 -41.1811,155.843 -27.3228,33.1654 -61.1654,49.6693 -101.323,49.6693 -39.1654,0 -71.8425,-15.8425 -98.1732,-47.6693 -26.1575,-31.8425 -39.3228,-82 -39.3228,-150.504z"
     id="path1417" /></glyph>
   <glyph
   unicode="."
   horiz-adv-x="277"
   id="glyph1423"><path
     d="M91.0079 0l0 100 100 0 0 -100 -100 0z"
     id="path1421" /></glyph>
   <glyph
   unicode="a"
   horiz-adv-x="556"
   id="glyph1427"><path
     d="M405.008 65.0079c-32.6772,-27.8425 -64.1732,-47.3386 -94.3465,-58.8346 -30.1575,-11.5118 -62.4882,-17.1811 -97.1654,-17.1811 -56.9921,0 -100.835,13.8425 -131.496,41.6693 -30.6614,27.6693 -46,63.1654 -46,106.346 0,25.3228 5.82677,48.4882 17.3386,69.4961 11.6693,20.9921 26.8346,37.6693 45.4961,50.3307 18.8346,12.6614 39.8268,22.3307 63.3386,28.8346 17.3228,4.50394 43.4961,8.83465 78.3307,13.1654 70.9921,8.33071 123.496,18.5039 156.992,30.1732 0.330709,12 0.503937,19.6535 0.503937,22.8189 0,35.6693 -8.33071,60.8346 -24.9921,75.5118 -22.5039,19.8268 -56,29.6693 -100.346,29.6693 -41.4961,0 -72.1575,-7.33858 -91.8268,-21.8425 -19.8268,-14.5039 -34.3307,-40.1575 -43.8268,-77.1654l-86 12c7.82677,36.8346 20.6614,66.6614 38.6614,89.3386 18,22.6614 44,40 78,52.3307 33.8268,12.1575 73.3386,18.3307 118,18.3307 44.3307,0 80.5039,-5.16535 108.331,-15.6693 27.6693,-10.5039 48.1732,-23.4961 61.1654,-39.3228 13.0079,-15.8425 22.1732,-35.8425 27.4961,-60 2.83465,-15.0079 4.34646,-42 4.34646,-80.8346l0 -116.677c0,-81.4961 1.82677,-132.992 5.49606,-154.835 3.49606,-21.8268 10.8346,-42.6614 21.4961,-62.6614l-92 0c-8.83465,18.5039 -14.5039,40.1732 -16.9921,65.0079zm-7.00787 194.992c-32,-12.9921 -80,-24 -144,-32.9921 -36.3307,-5.1811 -62,-11.0079 -76.9921,-17.5118 -15.0079,-6.48819 -26.5039,-16 -34.6772,-28.3307 -8.15748,-12.5039 -12.3307,-26.3307 -12.3307,-41.6693 0,-23.1654 8.83465,-42.6614 26.6614,-58.1575 17.8425,-15.5118 43.8425,-23.3386 78,-23.3386 33.8425,0 64,7.33858 90.5039,22.1732 26.3307,14.6614 45.8425,34.8346 58.1732,60.3307 9.49606,19.8268 14.1575,48.9921 14.1575,87.4961l0.503937 32z"
     id="path1425" /></glyph>
   <glyph
   unicode="l"
   horiz-adv-x="222"
   id="glyph1431"><path
     d="M64 0l0 716 88 0 0 -716 -88 0z"
     id="path1429" /></glyph>
   <glyph
   unicode="6"
   horiz-adv-x="556"
   id="glyph1435"><path
     d="M499.008 541.008l-87.0079 -7.00787c-7.82677,34.5039 -18.9921,59.6693 -33.4961,75.3386 -23.8425,25.1654 -53.3386,37.6693 -88.3307,37.6693 -28.1732,0 -53.1654,-7.84252 -74.6772,-23.5118 -27.6693,-20.1575 -49.3228,-49.4961 -65.4961,-88.1575 -16,-38.8346 -24.3307,-94 -24.9921,-165.512 21.1654,32.1732 47.1654,56.1732 77.8268,71.6693 30.6614,15.6693 62.6614,23.5118 96.3307,23.5118 58.6614,0 108.661,-21.6693 150,-64.8346 41.1654,-43.1654 61.8425,-98.8346 61.8425,-167.339 0,-45.0079 -9.66929,-86.6614 -29.0079,-125.339 -19.4961,-38.6614 -46,-68.1575 -80,-88.6614 -33.8268,-20.5039 -72.3307,-30.8346 -115.339,-30.8346 -73.1654,0 -132.992,27.0079 -179.323,80.8346 -46.1732,53.8268 -69.3386,142.661 -69.3386,266.331 0,138.331 25.6693,239.008 76.8346,301.843 44.6614,54.6614 104.835,82 180.661,82 56.3307,0 102.677,-15.8425 138.677,-47.3386 36,-31.4961 57.6535,-75.0079 64.8346,-130.661zm-360 -309.008c0,-30.3307 6.48819,-59.3386 19.3228,-86.9921 12.8346,-27.6693 30.8346,-48.6772 53.6693,-63.1811 23.0079,-14.4882 47.3386,-21.8268 73.1654,-21.8268 37.4961,0 69.4961,15.0079 96,45.0079 26.5039,30 39.8425,70.6614 39.8425,122.157 0,49.4961 -13.1811,88.5039 -39.3386,117.008 -26.1732,28.4882 -59.4961,42.8346 -100,42.8346 -39.6693,0 -73.4961,-14.3465 -101.165,-42.8346 -27.6693,-28.5039 -41.4961,-65.8425 -41.4961,-112.173z"
     id="path1433" /></glyph>
   <glyph
   unicode="i"
   horiz-adv-x="222"
   id="glyph1439"><path
     d="M66 616l0 100 88 0 0 -100 -88 0zm0 -616l0 519.008 88 0 0 -519.008 -88 0z"
     id="path1437" /></glyph>
  </font>
  <font
   id="FontID0"
   horiz-adv-x="739"
   font-variant="normal"
   style="fill-rule:nonzero"
   font-weight="700">
	<font-face
   font-family="Century Gothic"
   id="font-face1442">
	</font-face>
   <missing-glyph
   id="missing-glyph1446"><path
     d="M0 0z"
     id="path1444" /></missing-glyph>
   <glyph
   unicode="t"
   horiz-adv-x="299"
   id="glyph1450"><path
     d="M82.9978 727.001l133 0 0 -196.001 79.002 0 0 -115.001 -79.002 0 0 -416 -133 0 0 416 -67.9953 0 0 115.001 67.9953 0 0 196.001z"
     id="path1448" /></glyph>
   <glyph
   unicode="c"
   horiz-adv-x="640"
   id="glyph1454"><path
     d="M587.003 422.999l-110.833 -60.9966c-20.8368,21.8296 -41.3365,36.8321 -61.6707,45.3323 -20.3342,8.50018 -44.1678,12.6675 -71.5008,12.6675 -49.8305,0 -90.162,-14.837 -120.829,-44.3333 -30.8384,-29.6679 -46.1719,-67.505 -46.1719,-113.836 0,-45.0013 14.837,-81.6679 44.3333,-110.165 29.6679,-28.5035 68.504,-42.6664 116.668,-42.6664 59.5013,0 105.832,20.3342 139.171,60.9966l104.834 -71.9972c-57.0009,-74.0012 -137.339,-110.999 -241.167,-110.999 -93.502,0 -166.67,27.6639 -219.503,82.8323 -52.8335,55.1684 -79.333,119.664 -79.333,193.666 0,51.332 12.833,98.5028 38.499,141.666 25.8376,43.1689 61.6707,77.1696 107.836,101.837 46.0003,24.6671 97.4977,36.9975 154.499,36.9975 52.8335,0 100.164,-10.4981 142.168,-31.5003 41.9984,-20.9961 76.33,-50.8295 103.001,-89.5001z"
     id="path1452" /></glyph>
   <glyph
   unicode="0"
   horiz-adv-x="560"
   id="glyph1458"><path
     d="M277.834 735.998c52.331,0 97.4977,-12.833 135.335,-38.499 37.9965,-25.8315 67.1618,-64.9985 87.8332,-117.832 20.6652,-52.999 30.9978,-126.498 30.9978,-220.833 0,-95.3344 -10.4981,-169.501 -31.5003,-222.666 -21.0022,-52.999 -49.1687,-92.0005 -84.6647,-116.833 -35.3367,-24.8325 -80.1664,-37.3346 -134.17,-37.3346 -53.9979,0 -99.3302,12.5021 -135.997,37.5001 -36.8321,25.1635 -65.6665,63.1661 -86.5033,114.333 -20.8307,51.0011 -31.1632,123.666 -31.1632,218.167 0,131.664 20.3342,227.164 60.9966,286.334 45.1668,65.164 108.167,97.6632 188.836,97.6632zm4.16736 -129.997c-23.0001,0 -43.3344,-7.33577 -61.1682,-22.1667 -17.8338,-14.6654 -31.3348,-40.166 -40.834,-76.1707 -9.33365,-35.9986 -13.9974,-88.6666 -13.9974,-158.163 0,-90.499 10.829,-153.169 32.3338,-187.666 21.4987,-34.5033 49.3341,-51.8346 83.6658,-51.8346 32.9957,0 59.1642,16.3324 78.4995,49.1687 23.6681,39.6634 35.5022,105.832 35.5022,198.666 0,93.9984 -10.6697,158.997 -31.8374,194.665 -21.1677,35.6677 -48.5007,53.5015 -82.1643,53.5015z"
     id="path1456" /></glyph>
   <glyph
   unicode="n"
   horiz-adv-x="600"
   id="glyph1462"><path
     d="M67.0025 531.001l133 0 0 -54.6659c30.1643,25.3289 57.6627,42.8318 82.1643,52.8335 24.5016,9.83006 49.6651,14.8309 75.3311,14.8309 52.668,0 97.5039,-18.3302 134.17,-54.9968 30.8323,-31.3348 46.3312,-77.5006 46.3312,-138.503l0 -350.499 -132.001 0 0 232.165c0,63.3377 -2.83135,105.336 -8.50018,126.001 -5.6627,20.8368 -15.6644,36.6666 -29.6679,47.5017 -14.1629,10.8351 -31.6658,16.3324 -52.331,16.3324 -27.002,0 -50.1676,-9.00271 -69.4968,-27.002 -19.3353,-17.9993 -32.6708,-42.9973 -40.1721,-74.6631 -3.83029,-16.6694 -5.82817,-52.5026 -5.82817,-107.671l0 -212.664 -133 0 0 531.001z"
     id="path1460" /></glyph>
   <glyph
   unicode="h"
   horiz-adv-x="600"
   id="glyph1466"><path
     d="M68.0014 735.998l133 0 0 -259.332c25.9969,22.5037 52,39.3325 78.334,50.4986 26.1624,11.1661 52.8335,16.8349 79.6639,16.8349 52.5026,0 96.8359,-18.1648 132.834,-54.6659 30.8323,-31.5003 46.1657,-77.8315 46.1657,-138.834l0 -350.499 -131.002 0 0 232.502c0,61.3337 -2.83135,103.001 -8.66565,124.665 -5.8343,21.8357 -15.8298,38.0026 -29.9988,48.8316 -13.9974,10.6697 -31.5003,16.0014 -52.1655,16.0014 -26.8365,0 -50.0021,-9.00271 -69.3313,-26.8304 -19.1698,-17.8338 -32.5054,-42.17 -40.0005,-73.0023 -3.83642,-16.0014 -5.8343,-52.331 -5.8343,-109.166l0 -213.001 -133 0 0 735.998z"
     id="path1464" /></glyph>
   <glyph
   unicode="s"
   horiz-adv-x="439"
   id="glyph1470"><path
     d="M392.001 455.835l-82.3359 -82.8323c-33.3327,33.3327 -63.6625,49.996 -91.0016,49.996 -14.8309,0 -26.4995,-3.16842 -34.9997,-9.49912 -8.50018,-6.3307 -12.6614,-14.169 -12.6614,-23.5027 0,-7.16418 2.66588,-13.6665 7.99765,-19.6662 5.33176,-5.99977 18.6673,-14.1629 39.835,-24.6671l48.6661 -24.33c51.332,-25.1696 86.6626,-51.0011 105.832,-77.1696 19.1637,-26.3279 28.669,-56.9947 28.669,-92.3315 0,-46.9992 -17.3374,-86.3317 -52,-117.667 -34.6687,-31.5003 -81.1715,-47.1647 -139.502,-47.1647 -77.3351,0 -139.337,30.1643 -185.503,90.6645l82.1705 89.3346c15.6644,-18.1648 34.0007,-33.0018 55.1623,-44.1678 21.0022,-11.1661 39.6696,-16.8349 56.0019,-16.8349 17.5029,0 31.8312,4.16736 42.5009,12.6675 10.8351,8.50018 16.1669,18.1709 16.1669,29.1654 0,20.4997 -19.3353,40.503 -58.1653,59.8383l-44.8358 22.4976c-86.0007,43.1689 -128.998,97.1668 -128.998,162 0,41.8329 16.1669,77.666 48.5007,107.334 32.3338,29.6679 73.6641,44.4988 123.997,44.4988 34.5033,0 66.837,-7.66671 97.3323,-22.8347 30.3359,-15.1618 56.0019,-36.9975 77.1696,-65.3294z"
     id="path1468" /></glyph>
   <glyph
   unicode="g"
   horiz-adv-x="660"
   id="glyph1474"><path
     d="M461.002 531.001l132.001 0 0 -454.334c0,-89.6656 -18.1709,-155.669 -54.335,-197.833 -48.5007,-57.1663 -121.668,-85.8353 -219.503,-85.8353 -52,0 -95.8308,6.5023 -131.498,19.5008 -35.5022,12.9985 -65.501,32.1683 -89.831,57.5034 -24.5016,25.1635 -42.6664,55.8303 -54.335,91.9944l147.5 0c12.9985,-14.8309 29.8334,-25.9969 50.4986,-33.6637 20.4997,-7.50124 44.8358,-11.3315 73.0023,-11.3315 35.9986,0 64.833,5.49723 86.6688,16.4978 21.9951,11.0006 37.3285,25.1696 46.3312,42.5009 8.99659,17.4968 13.501,47.5017 13.501,90.1681 -23.5027,-23.5027 -48.1697,-40.503 -74.0012,-50.6701 -25.8315,-10.3326 -55.003,-15.4989 -87.6677,-15.4989 -71.5008,0 -132.001,25.666 -181.335,76.998 -49.328,51.3382 -73.9951,116.337 -73.9951,195.002 0,84.1683 26.1624,151.833 78.3279,202.834 47.5017,46.1657 104,69.1659 169.673,69.1659 30.6607,0 59.6667,-5.66883 86.9997,-16.8349 27.1614,-11.1661 54.4943,-29.6618 81.9989,-55.3339l0 59.1703zm-139.502 -112.004c-42.1638,0 -76.998,-13.9974 -104.331,-41.9984 -27.5046,-28.001 -41.171,-63.1661 -41.171,-105.502 0,-43.9962 14.0035,-80.1664 42.17,-108.333 28.001,-28.1664 63.3316,-42.1638 105.832,-42.1638 41.502,0 75.6682,13.8319 102.664,41.3304 26.8365,27.5046 40.3376,63.5032 40.3376,108.167 0,44.0024 -13.501,79.67 -40.6685,107.168 -27.1675,27.4984 -62.0017,41.3304 -104.834,41.3304z"
     id="path1472" /></glyph>
   <glyph
   unicode="u"
   horiz-adv-x="600"
   id="glyph1478"><path
     d="M67.0025 531.001l134.998 0 0 -255.336c0,-49.6651 3.49935,-84.1622 10.3326,-103.498 6.83324,-19.3353 17.8338,-34.3317 33.0018,-45.1668 15.168,-10.6697 34.0007,-16.0014 56.1674,-16.0014 22.1667,0 41.1649,5.33176 56.6638,15.836 15.4989,10.4981 27.002,25.9969 34.5033,46.4967 5.49723,15.3334 8.32858,48.0043 8.32858,98.0003l0 259.669 133 0 0 -224.67c0,-92.6624 -7.32964,-156 -21.9951,-190.166 -17.8338,-41.6674 -44.3333,-73.4987 -79.1675,-95.8308 -34.8342,-22.1667 -79.1675,-33.3327 -132.834,-33.3327 -58.3369,0 -105.336,12.9985 -141.335,38.9954 -35.9986,26.0031 -61.3337,62.1671 -75.9991,108.67 -10.4981,32.1683 -15.6644,90.6645 -15.6644,175.501l0 220.833z"
     id="path1476" /></glyph>
   <glyph
   unicode="d"
   horiz-adv-x="660"
   id="glyph1482"><path
     d="M460.003 735.998l133 0 0 -735.998 -133 0 0 56.4983c-26.0031,-24.6671 -52.1716,-42.3293 -78.334,-53.1644 -26.1685,-10.8351 -54.6659,-16.3324 -85.1673,-16.3324 -68.8349,0 -128.171,26.4995 -178.332,79.6639 -50.1676,52.999 -75.1718,119.003 -75.1718,197.833 0,81.8334 24.3361,148.836 72.8368,201.167 48.5007,52.1655 107.334,78.334 176.665,78.334 32.0028,0 61.8362,-5.99977 89.831,-17.8338 28.001,-11.9995 53.8386,-29.9988 77.6722,-53.8324l0 263.665zm-140.17 -313.998c-41.3304,0 -75.6682,-14.4999 -102.83,-43.6653 -27.3391,-28.9999 -41.0056,-66.3345 -41.0056,-111.832 0,-45.8348 13.8381,-83.5003 41.6674,-113.168 27.8355,-29.5024 62.0017,-44.3333 102.67,-44.3333 41.8329,0 76.6671,14.4999 104.166,43.6653 27.6639,28.9999 41.502,67.168 41.502,114.333 0,46.1657 -13.8381,83.5003 -41.502,112.169 -27.4984,28.4974 -62.4981,42.8318 -104.668,42.8318z"
     id="path1480" /></glyph>
   <glyph
   unicode=" "
   horiz-adv-x="279"
   id="glyph1484" />
   <glyph
   unicode="1"
   horiz-adv-x="560"
   id="glyph1488"><path
     d="M164.169 717.999l204.832 0 0 -717.999 -136.003 0 0 590 -147.996 0 79.1675 127.999z"
     id="path1486" /></glyph>
   <glyph
   unicode="o"
   horiz-adv-x="640"
   id="glyph1492"><path
     d="M316.836 543.999c50.1615,0 97.3323,-12.5021 141.5,-37.5001 44.3333,-24.998 78.665,-58.8333 103.498,-101.665 24.8325,-43.0034 37.1691,-89.1692 37.1691,-138.834 0,-50.0021 -12.5021,-96.6643 -37.3346,-140.164 -24.998,-43.4998 -58.9987,-77.5006 -102.002,-102.002 -43.1628,-24.5016 -90.499,-36.8321 -142.334,-36.8321 -76.33,0 -141.5,26.9959 -195.333,80.9999 -53.9979,54.1634 -80.9999,119.83 -80.9999,197 0,82.8323 30.5014,151.833 91.498,207.001 53.5015,47.9981 114.835,71.9972 184.338,71.9972zm1.99788 -125.002c-41.502,0 -75.9991,-14.3284 -103.498,-42.9973 -27.5046,-28.8344 -41.3365,-65.501 -41.3365,-110.331 0,-46.0003 13.6665,-83.3349 40.834,-111.838 27.1675,-28.4974 61.6646,-42.8318 103.498,-42.8318 41.6674,0 76.3362,14.4999 104.172,43.3344 27.6639,28.8344 41.4958,65.9974 41.4958,111.336 0,45.4977 -13.6665,82.3298 -40.834,110.833 -27.1614,28.3319 -61.9956,42.4948 -104.331,42.4948z"
     id="path1490" /></glyph>
   <glyph
   unicode="l"
   horiz-adv-x="239"
   id="glyph1496"><path
     d="M52.999 735.998l133 0 0 -735.998 -133 0 0 735.998z"
     id="path1494" /></glyph>
   <glyph
   unicode="i"
   horiz-adv-x="239"
   id="glyph1500"><path
     d="M119.836 749.003c23.3311,0 43.3282,-8.50018 59.9977,-25.3351 16.8349,-16.8349 25.1635,-37.1691 25.1635,-61.1682 0,-23.6681 -8.32858,-43.8308 -24.8325,-60.5002 -16.4978,-16.6633 -36.3295,-24.998 -59.4951,-24.998 -23.6681,0 -43.8369,8.50018 -60.5002,25.5005 -16.8349,17.0004 -25.1696,37.6655 -25.1696,61.9956 0,23.3372 8.33471,43.1689 24.8325,59.6667 16.504,16.504 36.5011,24.8387 60.0038,24.8387zm-66.837 -218.002l133 0 0 -531.001 -133 0 0 531.001z"
     id="path1498" /></glyph>
   <glyph
   unicode="%"
   horiz-adv-x="859"
   id="glyph1504"><path
     d="M659.833 750.002l98.9992 0 -568.832 -798.999 -98.5028 0 487.17 686.161c-29.337,-4.9947 -56.8354,-8.83112 -82.6669,-11.3315 -25.666,-2.50041 -49.4996,-3.83029 -71.3353,-3.83029 -22.4976,0 -46.3312,1.16441 -71.5008,3.49935 7.1703,-22.6692 10.8351,-43.3344 10.8351,-61.8362 0,-47.5017 -16.4978,-87.8332 -49.6651,-121 -33.0018,-33.1673 -73.3332,-49.6651 -120.835,-49.6651 -47.8327,0 -88.6666,16.6694 -122.165,49.8305 -33.5043,33.1673 -50.3331,73.3332 -50.3331,120.504 0,30.5014 7.49511,58.8333 22.4976,85.1673 14.8309,26.1624 35.9986,47.3301 63.0006,63.3316 27.1675,16.1669 54.1634,24.1645 80.8345,24.1645 20.1626,0 47.8327,-3.83029 83.3287,-11.6625 62.6697,-13.501 118.004,-20.3342 165.836,-20.3342 43.1689,0 83.3349,3.83029 120.669,11.497 37.163,7.66671 71.3292,19.1698 102.664,34.5033zm-467.332 -103.001c-22.8347,0 -42.17,-7.99765 -58.3369,-24.1645 -16.1669,-16.1669 -24.1645,-35.5022 -24.1645,-57.9998 0,-23.0001 7.99765,-42.5009 24.1645,-58.6678 16.1669,-16.1669 35.5022,-24.1707 58.3369,-24.1707 22.8347,0 42.1638,8.00378 58.3307,24.1707 16.1669,16.1669 24.1707,35.6677 24.1707,58.6678 0,22.8285 -8.00378,42.1638 -24.1707,58.1653 -16.1669,16.0014 -35.4961,23.9991 -58.3307,23.9991zm474.999 -324c47.1647,0 87.6677,-16.8349 121.166,-50.3331 33.4982,-33.4982 50.3331,-74.0012 50.3331,-121.331 0,-47.1708 -16.8349,-87.5022 -50.3331,-121 -33.4982,-33.5043 -74.0012,-50.3331 -121.166,-50.3331 -47.5017,0 -87.9986,16.8288 -121.503,50.3331 -33.3327,33.4982 -49.996,73.8296 -49.996,121 0,47.3301 16.6633,87.8332 49.996,121.331 33.5043,33.4982 74.0012,50.3331 121.503,50.3331zm0.330937 -89.0037c-23.1656,0 -42.6664,-8.16312 -58.6617,-24.33 -16.1669,-16.1669 -24.1707,-35.5022 -24.1707,-58.1653 0,-22.6692 8.00378,-42.0045 24.1707,-58.1714 15.9953,-16.1608 35.4961,-24.33 58.6617,-24.33 22.6692,0 42.0045,8.16924 57.9998,24.33 16.1669,16.1669 24.1707,35.5022 24.1707,58.1714 0,22.6631 -8.00378,41.9984 -24.1707,58.1653 -15.9953,16.1669 -35.3306,24.33 -57.9998,24.33z"
     id="path1502" /></glyph>
  </font>
</defs>
</svg>
