<?xml version="1.0" encoding="UTF-8" standalone="no"?>
<!-- Creator: CorelDRAW X7 -->

<svg
   xml:space="preserve"
   width="106.68mm"
   height="34.798mm"
   version="1.1"
   style="shape-rendering:geometricPrecision; text-rendering:geometricPrecision; image-rendering:optimizeQuality; fill-rule:evenodd; clip-rule:evenodd"
   viewBox="0 0 10668 3480"
   id="svg110"
   sodipodi:docname="Slider_Sommer_Gi_fr.svg"
   inkscape:version="1.2-beta (1b65182ce9, 2022-04-05)"
   xmlns:inkscape="http://www.inkscape.org/namespaces/inkscape"
   xmlns:sodipodi="http://sodipodi.sourceforge.net/DTD/sodipodi-0.dtd"
   xmlns:xlink="http://www.w3.org/1999/xlink"
   xmlns="http://www.w3.org/2000/svg"
   xmlns:svg="http://www.w3.org/2000/svg"><sodipodi:namedview
   id="namedview112"
   pagecolor="#ffffff"
   bordercolor="#666666"
   borderopacity="1.0"
   inkscape:pageshadow="2"
   inkscape:pageopacity="0.0"
   inkscape:pagecheckerboard="0"
   inkscape:deskcolor="#d1d1d1"
   inkscape:document-units="mm"
   showgrid="false"
   inkscape:zoom="3.9756944"
   inkscape:cx="201.47424"
   inkscape:cy="65.648908"
   inkscape:window-width="3840"
   inkscape:window-height="2066"
   inkscape:window-x="-11"
   inkscape:window-y="-11"
   inkscape:window-maximized="1"
   inkscape:current-layer="Ebene_x0020_1" />
 <defs
   id="defs97">
  <font
   id="FontID1"
   horiz-adv-x="683"
   font-variant="normal"
   class="str0"
   style="fill-rule:nonzero"
   font-weight="400">
	<font-face
   font-family="Verdana"
   id="font-face2">
	</font-face>
   <missing-glyph
   id="missing-glyph6"><path
     d="M0 0z"
     id="path4" /></missing-glyph>
   <glyph
   unicode="t"
   horiz-adv-x="393"
   id="glyph10"><path
     d="M372.995 4.66296c-17.1637,-4.66296 -35.9998,-8.33381 -56.3241,-11.3243 -20.3385,-2.83463 -38.5084,-4.33698 -54.3398,-4.33698 -55.6579,0 -97.9931,14.9952 -126.835,44.9997 -28.9982,29.8345 -43.4974,77.8389 -43.4974,143.999l0 289.997 -61.9933 0 0 77.0027 61.9933 0 0 156.996 91.9978 0 0 -156.996 188.999 0 0 -77.0027 -188.999 0 0 -248.824c0,-28.6723 0.666138,-51.1792 1.99841,-67.3366 1.17637,-16.1716 5.83933,-31.1667 13.6771,-45.1698 7.00153,-12.9968 16.8235,-22.6628 29.3242,-28.6723 12.5007,-5.99524 31.677,-8.99994 57.3445,-8.99994 14.8251,0 30.4864,2.33857 46.658,6.83145 16.3416,4.50706 28.0061,8.1779 35.1636,11.1684l4.83304 0 0 -82.3318z"
     id="path8" /></glyph>
   <glyph
   unicode="‘"
   horiz-adv-x="268"
   id="glyph14"><path
     d="M190.997 487.003l-67.4925 0 -132.505 273.003 119.338 0 80.6593 -273.003z"
     id="path12" /></glyph>
   <glyph
   unicode="d"
   horiz-adv-x="622"
   id="glyph18"><path
     d="M532.995 0l-91.9978 0 0 57.1603c-26.5038,-22.6628 -53.9997,-40.4927 -82.6577,-53.1634 -28.6723,-12.6566 -59.839,-18.992 -93.5002,-18.992 -65.1681,0 -116.999,25.0014 -155.338,75.1602 -38.3383,50.0028 -57.5004,119.508 -57.5004,208.175 0,46.1619 6.66138,87.3207 19.8282,123.32 13.1668,36.1699 31.0108,66.8405 53.5036,92.338 22.1668,24.6613 48.1603,43.4974 77.6688,56.5083 29.4943,12.9968 59.9949,19.4881 91.6719,19.4881 28.6581,0 54.1556,-2.99053 76.3224,-8.99994 22.1668,-5.99524 45.5099,-15.3353 70.0011,-27.9919l0 237.003 91.9978 0 0 -760.006zm-91.9978 133.837l0 311.993c-24.8313,10.9984 -46.9981,18.666 -66.5004,22.8329 -19.6581,4.1669 -41.0029,6.33539 -64.1618,6.33539 -51.5052,0 -91.6719,-17.8298 -120.33,-53.5036 -28.6723,-35.6596 -43.0013,-86.3286 -43.0013,-151.823 0,-64.672 11.1684,-113.669 33.3352,-147.344 22.1668,-33.4911 57.6563,-50.3288 106.497,-50.3288 26.1636,0 52.6674,5.83933 79.3271,17.3337 26.6738,11.4944 51.6753,26.3337 74.8342,44.5037z"
     id="path16" /></glyph>
   <glyph
   unicode=" "
   horiz-adv-x="351"
   id="glyph20" />
   <glyph
   unicode="é"
   horiz-adv-x="595"
   id="glyph24"><path
     d="M546.998 262.997l-401.993 0c0,-33.3352 4.98894,-62.5035 15.1653,-87.3349 9.99206,-24.8313 23.825,-45.1556 41.499,-61.0012 16.8235,-15.4912 36.9919,-27.1557 60.165,-34.9935 23.329,-7.83775 48.9965,-11.6645 77.0027,-11.6645 36.9919,0 74.3239,7.32751 111.996,22.1668 37.5021,14.8251 64.3319,29.4943 80.3334,43.8375l4.83304 0 0 -100.176c-30.8266,-12.9968 -62.5035,-23.825 -94.6624,-32.6691 -32.173,-8.82987 -66.0043,-13.1668 -101.508,-13.1668 -90.3254,0 -160.993,24.5054 -211.662,73.3318 -50.839,48.8406 -76.1664,118.346 -76.1664,208.345 0,88.9931 24.3353,159.66 73.0058,211.832 48.6564,52.3272 112.662,78.4908 191.989,78.4908 73.672,0 130.336,-21.5007 170.177,-64.3319 39.8265,-43.0013 59.8248,-103.832 59.8248,-182.833l0 -49.8328zm-88.9931 70.0011c-0.340155,48.0044 -12.5007,85.1664 -36.51,111.5 -23.825,26.3337 -60.3351,39.5005 -109.162,39.5005 -49.3367,0 -88.4971,-14.4991 -117.665,-43.3273 -29.1683,-28.9982 -45.6659,-64.8421 -49.6627,-107.673l313 0zm10.9984 485.997l-133.341 -182.989 -72.6657 0 87.3349 182.989 118.672 0z"
     id="path22" /></glyph>
   <glyph
   unicode="i"
   horiz-adv-x="274"
   id="glyph28"><path
     d="M188.007 636.998l-104.002 0 0 95.0026 104.002 0 0 -95.0026zm-6.00941 -636.998l-91.9978 0 0 545 91.9978 0 0 -545z"
     id="path26" /></glyph>
   <glyph
   unicode="G"
   horiz-adv-x="775"
   id="glyph32"><path
     d="M703.994 52.8375c-39.6564,-18.17 -83.1538,-34.0014 -130.166,-47.5084 -46.9981,-13.4928 -92.4939,-20.3243 -136.502,-20.3243 -56.6642,0 -108.495,7.82357 -155.664,23.4991 -47.3241,15.6613 -87.4908,38.9903 -120.656,70.3271 -33.5053,31.6628 -59.513,71.1633 -77.6688,118.502 -18.17,47.3383 -27.34,102.84 -27.34,166.336 0,116.333 34.0014,208.161 101.834,275.497 68.0027,67.1665 161.163,100.828 279.834,100.828 41.3289,0 83.664,-4.98894 126.835,-14.8251 43.1714,-10.0062 89.6593,-26.8298 139.492,-50.4989l0 -114.675 -8.82987 0c-9.99206,7.66767 -24.6613,17.844 -43.8375,30.1746 -19.3322,12.5007 -38.1541,23.003 -56.6642,31.3368 -22.4928,9.82199 -47.9902,18.1558 -76.4924,24.6613 -28.5022,6.50547 -60.8311,9.83616 -97.001,9.83616 -81.3396,0 -145.672,-26.0077 -193.166,-78.1649 -47.3383,-52.1713 -71.0074,-122.669 -71.0074,-211.676 0,-93.8262 24.6754,-166.832 74.168,-219.003 49.3367,-52.1572 116.673,-78.1649 201.84,-78.1649 31.1667,0 62.3335,3.00471 93.3301,9.17002 30.9967,6.16532 58.3366,14.1731 81.6656,23.8392l0 176.994 -194.994 0 0 86.0026 290.989 0 0 -312.163z"
     id="path30" /></glyph>
  </font>
  <font
   id="FontID0"
   horiz-adv-x="667"
   font-variant="normal"
   style="fill-rule:nonzero"
   font-weight="400">
	<font-face
   font-family="Arial"
   id="font-face35">
	</font-face>
   <missing-glyph
   id="missing-glyph39"><path
     d="M0 0z"
     id="path37" /></missing-glyph>
   <glyph
   unicode="f"
   horiz-adv-x="277"
   id="glyph43"><path
     d="M87.0049 0l0 451 -78.0149 0 0 67.9922 78.0149 0 0 55.0134c0,34.8263 2.99668,60.6625 9.15202,77.4885 8.50409,22.6776 23.1838,41.1638 44.5047,55.3373 21.1792,14.1735 51.0043,21.159 89.3334,21.159 24.8441,0 52.1787,-2.99668 82.1657,-8.82806l-13.1611 -77.0025c-18.3243,3.17891 -35.4945,4.83923 -51.8345,4.83923 -26.6664,0 -45.4969,-5.66939 -56.6737,-17.0082 -10.9946,-11.3185 -16.4817,-32.4978 -16.4817,-63.4972l0 -47.5014 100.996 0 0 -67.9922 -100.004 0 0 -451 -87.9971 0z"
     id="path41" /></glyph>
   <glyph
   unicode="t"
   horiz-adv-x="277"
   id="glyph47"><path
     d="M257.006 78.5009l11.9867 -77.6707c-24.6619,-5.1632 -46.8332,-7.83591 -66.1497,-7.83591 -31.8498,0 -56.5117,5.00121 -74.1678,15.1656 -17.5144,10.1644 -29.8453,23.3458 -37.013,39.8477 -7.16773,16.502 -10.6706,51.1663 -10.6706,103.993l0 299 -64.9955 0 0 67.9922 64.9955 0 0 128.331 88.0173 52.8468 0 -181.178 87.9971 0 0 -67.9922 -87.9971 0 0 -304.001c0,-25.1681 1.49834,-41.3258 4.657,-48.4936 2.99668,-7.16773 7.99789,-12.8371 15.0036,-17.1702 7.00575,-4.17105 16.9879,-6.33757 30.0073,-6.33757 9.65822,0 22.4953,1.17437 38.3291,3.50288z"
     id="path45" /></glyph>
   <glyph
   unicode="'"
   horiz-adv-x="190"
   id="glyph51"><path
     d="M67.5063 463.007l-22.5156 133.494 0 119.503 100.004 0 0 -119.503 -23.4875 -133.494 -54.001 0z"
     id="path49" /></glyph>
   <glyph
   unicode="e"
   horiz-adv-x="556"
   id="glyph55"><path
     d="M420.001 167.996l90.9938 -11.9867c-14.1532,-52.8468 -40.6576,-94.0107 -79.331,-123.168 -38.6734,-29.1771 -87.9971,-43.8366 -148.174,-43.8366 -75.6662,0 -135.66,23.3255 -179.983,69.9968 -44.3428,46.489 -66.5141,111.991 -66.5141,196.161 0,87.0049 22.3334,154.673 67.1823,202.661 44.8287,48.1696 103.001,72.1835 174.496,72.1835 69.1666,0 125.658,-23.5077 169.495,-70.6649 43.8366,-47.1775 65.8257,-113.509 65.8257,-199.016 0,-5.1632 -0.161983,-12.9991 -0.485948,-23.3255l-386.511 0c3.34089,-56.8357 19.3367,-100.51 48.3316,-130.659 28.8329,-30.1693 65.0158,-45.3349 108.164,-45.3349 32.1738,0 59.6704,8.48384 82.3479,25.492 22.8193,17.0082 40.8196,44.1605 54.163,81.4975zm-288.005 141.006l288.997 0c-3.82684,43.6746 -14.9834,76.3343 -33.166,98.1615 -27.8205,33.8341 -64.1654,50.8423 -108.67,50.8423 -40.3134,0 -74.1476,-13.5053 -101.664,-40.5159 -27.3346,-26.9904 -42.5002,-63.153 -45.4969,-108.488z"
     id="path53" /></glyph>
   <glyph
   unicode="s"
   horiz-adv-x="500"
   id="glyph59"><path
     d="M30.9994 154.997l87.0049 14.0115c4.81898,-34.8465 18.4863,-61.5129 40.8196,-80.1814 22.3334,-18.4863 53.677,-27.8205 93.6665,-27.8205 40.5159,0 70.503,8.15988 90.1839,24.6619 19.4987,16.34 29.3189,35.6564 29.3189,57.8278 0,19.8429 -8.82806,35.4945 -26.3222,46.8332 -12.3309,7.83591 -42.3382,17.6764 -90.0016,29.8453 -64.3274,16.1578 -108.832,30.149 -133.838,41.994 -24.8238,12.007 -43.6746,28.3267 -56.4915,49.3237 -12.8371,20.835 -19.3367,43.9985 -19.3367,69.3488 0,23.1635 5.32518,44.4845 15.8338,64.1654 10.6706,19.6606 25.0061,36.0006 43.1684,48.9998 13.6673,10.0024 32.3358,18.4863 55.8233,25.492 23.6697,7.00575 48.8378,10.5086 75.8281,10.5086 40.6779,0 76.3343,-5.83138 107.01,-17.6764 30.8375,-11.6628 53.4948,-27.6585 68.1745,-47.6634 14.4974,-20.1668 24.6619,-46.9952 30.149,-80.6674l-85.9925 -12.007c-3.82684,27.0106 -15.1656,48.1696 -33.8341,63.3352 -18.6685,15.1656 -44.9907,22.6776 -79.169,22.6776 -40.1515,0 -68.9844,-6.68179 -86.1545,-20.0049 -17.1702,-13.3433 -25.8362,-28.9949 -25.8362,-46.8332 0,-11.3388 3.50288,-21.6652 10.6706,-30.8375 7.16773,-9.33425 18.3243,-17.1702 33.6519,-23.3255 8.8483,-3.34089 34.5023,-10.8326 77.5087,-22.4953 61.9989,-16.502 105.329,-30.1693 129.991,-40.6779 24.6821,-10.4884 43.9985,-25.9982 58.01,-46.0031 14.1735,-20.1668 21.159,-45.1527 21.159,-75.16 0,-29.1771 -8.50409,-56.6737 -25.654,-82.5099 -17.1702,-25.816 -41.832,-45.8208 -74.0058,-59.9943 -32.3358,-14.1735 -68.8426,-21.159 -109.5,-21.159 -67.3443,0 -118.835,13.9913 -154.167,41.832 -35.3325,28.0028 -57.8278,69.3286 -67.6683,124.16z"
     id="path57" /></glyph>
   <glyph
   unicode="u"
   horiz-adv-x="556"
   id="glyph63"><path
     d="M404.997 0l0 77.1645c-40.3337,-58.8402 -95.0028,-88.1591 -164.169,-88.1591 -30.4932,0 -59.0022,5.83138 -85.4864,17.4941 -26.5044,11.8247 -46.1651,26.5044 -59.0022,44.1605 -12.8371,17.8383 -21.8474,39.5035 -27.0106,65.1778 -3.50288,17.3321 -5.32518,44.6667 -5.32518,82.0037l0 321.151 87.9971 0 0 -287.155c0,-45.8411 1.84255,-76.8405 5.32518,-92.6743 5.50741,-23.1635 17.1702,-41.1638 35.1705,-54.3249 17.8383,-13.1813 39.8275,-19.8429 66.1699,-19.8429 26.3424,0 51.0043,6.66154 74.0058,20.1668 23.0015,13.5053 39.3213,32.0118 48.9998,55.1753 9.49623,23.1635 14.3355,56.9977 14.3355,101.158l0 277.497 87.9971 0 0 -518.992 -79.007 0z"
     id="path61" /></glyph>
   <glyph
   unicode=" "
   horiz-adv-x="277"
   id="glyph65" />
   <glyph
   unicode="é"
   horiz-adv-x="556"
   id="glyph69"><path
     d="M420.001 167.996l90.9938 -11.9867c-14.1532,-52.8468 -40.6576,-94.0107 -79.331,-123.168 -38.6734,-29.1771 -87.9971,-43.8366 -148.174,-43.8366 -75.6662,0 -135.66,23.3255 -179.983,69.9968 -44.3428,46.489 -66.5141,111.991 -66.5141,196.161 0,87.0049 22.3334,154.673 67.1823,202.661 44.8287,48.1696 103.001,72.1835 174.496,72.1835 69.1666,0 125.658,-23.5077 169.495,-70.6649 43.8366,-47.1775 65.8257,-113.509 65.8257,-199.016 0,-5.1632 -0.161983,-12.9991 -0.485948,-23.3255l-386.511 0c3.34089,-56.8357 19.3367,-100.51 48.3316,-130.659 28.8329,-30.1693 65.0158,-45.3349 108.164,-45.3349 32.1738,0 59.6704,8.48384 82.3479,25.492 22.8193,17.0082 40.8196,44.1605 54.163,81.4975zm-288.005 141.006l288.997 0c-3.82684,43.6746 -14.9834,76.3343 -33.166,98.1615 -27.8205,33.8341 -64.1654,50.8423 -108.67,50.8423 -40.3134,0 -74.1476,-13.5053 -101.664,-40.5159 -27.3346,-26.9904 -42.5002,-63.153 -45.4969,-108.488zm74.0058 273.994l64.0034 136.997 116 0 -107.01 -136.997 -72.9934 0z"
     id="path67" /></glyph>
   <glyph
   unicode="r"
   horiz-adv-x="332"
   id="glyph73"><path
     d="M64.9955 0l0 518.992 79.007 0 0 -79.493c20.1668,36.8308 38.8353,61.1687 56.0055,72.8315 17.1499,11.845 36.0006,17.6764 56.4915,17.6764 29.6631,0 59.8323,-9.33425 90.5078,-27.8408l-31.3436 -81.1736c-21.321,12.007 -42.6622,18.0003 -64.0034,18.0003 -19.1545,0 -36.3246,-5.83138 -51.4902,-17.3321 -15.1656,-11.5008 -25.9982,-27.4966 -32.4978,-47.9874 -9.84045,-31.1817 -14.6797,-65.3398 -14.6797,-102.515l0 -271.159 -87.9971 0z"
     id="path71" /></glyph>
   <glyph
   unicode="a"
   horiz-adv-x="556"
   id="glyph77"><path
     d="M404.997 64.9955c-32.6598,-27.8205 -64.1654,-47.3192 -94.3347,-58.82 -30.1693,-11.5008 -62.5051,-17.1702 -97.1694,-17.1702 -56.9977,0 -100.834,13.8293 -131.489,41.67 -30.6755,27.6585 -46.0031,63.153 -46.0031,106.321 0,25.33 5.83138,48.4936 17.3321,69.5108 11.6628,20.997 26.8284,37.661 45.4969,50.3159 18.8305,12.6751 39.8275,22.3334 63.3352,28.8532 17.3321,4.49502 43.4923,8.82806 78.3389,13.1611 70.9889,8.32186 123.492,18.4863 157.002,30.1693 0.323965,11.9867 0.485948,19.6606 0.485948,22.8193 0,35.6767 -8.32186,60.8447 -24.9858,75.5042 -22.5156,19.8429 -56.0055,29.6631 -100.348,29.6631 -41.4878,0 -72.1633,-7.32972 -91.8239,-21.8272 -19.8429,-14.4974 -34.3403,-40.1717 -43.8366,-77.1645l-85.9925 12.007c7.83591,36.8308 20.6528,66.6559 38.6531,89.3334 18.0003,22.6573 44.0188,39.9895 78.0149,52.3204 33.8341,12.1689 73.3377,18.3445 118.004,18.3445 44.3225,0 80.4851,-5.18345 108.326,-15.6718 27.6585,-10.5086 48.1696,-23.5077 61.1687,-39.3415 12.9991,-15.8338 22.1714,-35.8184 27.4966,-59.9943 2.8347,-15.0036 4.33304,-41.994 4.33304,-80.8294l0 -116.668c0,-81.4975 1.84255,-133.008 5.50741,-154.835 3.48263,-21.8272 10.8326,-42.6622 21.483,-62.667l-91.9859 0c-8.8483,18.5065 -14.4974,40.1717 -17.0082,64.9955zm-7.00575 195.007c-31.9916,-12.9991 -79.9992,-23.9937 -143.982,-33.004 -36.3449,-5.1632 -62.0191,-10.9946 -77.0025,-17.4941 -15.0036,-6.49955 -26.5044,-15.9958 -34.6643,-28.347 -8.18012,-12.4929 -12.3512,-26.3222 -12.3512,-41.6498 0,-23.1838 8.8483,-42.6824 26.6664,-58.172 17.8383,-15.5098 43.8366,-23.3255 78.0149,-23.3255 33.8341,0 64.0034,7.32972 90.4876,22.1511 26.3424,14.6797 45.8411,34.8465 58.172,60.3385 9.49623,19.8429 14.1735,48.9998 14.1735,87.4909l0.485948 32.0118z"
     id="path75" /></glyph>
   <glyph
   unicode="P"
   horiz-adv-x="667"
   id="glyph81"><path
     d="M77.0025 0l0 716.004 270.329 0c47.5014,0 83.826,-2.3285 108.994,-6.84377 35.1705,-5.83138 64.6716,-16.9879 88.5033,-33.3279 23.8317,-16.502 43.0064,-39.5035 57.5038,-69.0046 14.4974,-29.5011 21.6652,-61.9989 21.6652,-97.4933 0,-60.6625 -19.3367,-112.173 -58.172,-154.167 -38.6531,-42.1762 -108.832,-63.1732 -210.152,-63.1732l-183.668 0 0 -291.994 -95.0028 0zm95.0028 376.002l185.004 0c61.3307,0 104.661,11.3388 130.497,34.1581 25.654,22.8396 38.4911,54.8311 38.4911,96.3392 0,29.8251 -7.4917,55.4993 -22.6573,76.8405 -15.1656,21.321 -35.1705,35.4945 -59.8323,42.318 -16.016,4.17105 -45.5171,6.33757 -88.3413,6.33757l-183.162 0 0 -255.993z"
     id="path79" /></glyph>
   <glyph
   unicode="l"
   horiz-adv-x="222"
   id="glyph85"><path
     d="M64.0034 0l0 716.004 87.9971 0 0 -716.004 -87.9971 0z"
     id="path83" /></glyph>
   <glyph
   unicode="i"
   horiz-adv-x="222"
   id="glyph89"><path
     d="M66.0079 616l0 100.004 87.9971 0 0 -100.004 -87.9971 0zm0 -616l0 518.992 87.9971 0 0 -518.992 -87.9971 0z"
     id="path87" /></glyph>
  </font>
</defs>
</svg>
