<?xml version="1.0" encoding="UTF-8" standalone="no"?>
<!-- Creator: CorelDRAW X7 -->

<svg
   xml:space="preserve"
   width="106.68mm"
   height="34.798mm"
   version="1.1"
   style="shape-rendering:geometricPrecision; text-rendering:geometricPrecision; image-rendering:optimizeQuality; fill-rule:evenodd; clip-rule:evenodd"
   viewBox="0 0 10668 3480"
   id="svg126"
   sodipodi:docname="Slider_Sommer_Gi_de.svg"
   inkscape:version="1.2-beta (1b65182ce9, 2022-04-05)"
   xmlns:inkscape="http://www.inkscape.org/namespaces/inkscape"
   xmlns:sodipodi="http://sodipodi.sourceforge.net/DTD/sodipodi-0.dtd"
   xmlns:xlink="http://www.w3.org/1999/xlink"
   xmlns="http://www.w3.org/2000/svg"
   xmlns:svg="http://www.w3.org/2000/svg"><sodipodi:namedview
   id="namedview128"
   pagecolor="#ffffff"
   bordercolor="#666666"
   borderopacity="1.0"
   inkscape:pageshadow="2"
   inkscape:pageopacity="0.0"
   inkscape:pagecheckerboard="0"
   inkscape:deskcolor="#d1d1d1"
   inkscape:document-units="mm"
   showgrid="false"
   inkscape:zoom="3.9756944"
   inkscape:cx="201.47424"
   inkscape:cy="65.648908"
   inkscape:window-width="3840"
   inkscape:window-height="2066"
   inkscape:window-x="-11"
   inkscape:window-y="-11"
   inkscape:window-maximized="1"
   inkscape:current-layer="Ebene_x0020_1" />
 <defs
   id="defs113">
  <font
   id="FontID1"
   horiz-adv-x="683"
   font-variant="normal"
   class="str0"
   style="fill-rule:nonzero"
   font-style="normal"
   font-weight="400">
	<font-face
   font-family="Verdana"
   id="font-face2">
	</font-face>
   <missing-glyph
   id="missing-glyph6"><path
     d="M0 0z"
     id="path4" /></missing-glyph>
   <glyph
   unicode="e"
   horiz-adv-x="595"
   id="glyph10"><path
     d="M547.008 263.008l-402 0c0,-33.3386 4.99213,-62.5039 15.1654,-87.3386 10,-24.8346 23.8268,-45.1654 41.4961,-61.0079 16.8346,-15.4961 36.9921,-27.1654 60.1575,-34.9921 23.3386,-7.84252 49.0079,-11.6693 77.0079,-11.6693 36.9921,0 74.3307,7.33858 112,22.1732 37.4961,14.8346 64.3307,29.4961 80.3307,43.8268l4.83465 0 0 -100.173c-30.8346,-12.9921 -62.5039,-23.8268 -94.6614,-32.6614 -32.1732,-8.83465 -66,-13.1654 -101.512,-13.1654 -90.3307,0 -160.992,24.5039 -211.654,73.3386 -50.8346,48.8346 -76.1732,118.331 -76.1732,208.331 0,88.9921 24.3307,159.669 73.0079,211.827 48.6614,52.3307 112.661,78.5039 192,78.5039 73.6535,0 130.331,-21.4961 170.157,-64.3307 39.8425,-43.0079 59.8425,-103.843 59.8425,-182.835l0 -49.8268zm-89.0079 70c-0.330709,48 -12.5039,85.1654 -36.5039,111.496 -23.8268,26.3307 -60.3307,39.4961 -109.165,39.4961 -49.3228,0 -88.5039,-14.5039 -117.669,-43.3386 -29.1654,-28.9921 -45.6535,-64.8346 -49.6535,-107.654l312.992 0z"
     id="path8" /></glyph>
   <glyph
   unicode="m"
   horiz-adv-x="972"
   id="glyph14"><path
     d="M886 0l-92 0 0 310.504c0,23.3228 -0.992126,46 -3.16535,67.8268 -2.17323,21.8425 -6.66142,39.1654 -13.3386,52.1732 -7.49606,14 -18.3307,24.6614 -32.3307,31.8268 -14,7.16535 -34.1575,10.6772 -60.5039,10.6772 -25.6535,0 -51.3228,-6.50394 -76.9921,-19.3386 -25.6693,-12.8346 -51.3386,-29.1654 -77.1654,-49.0079 0.992126,-7.49606 1.82677,-16.1575 2.50394,-26.1575 0.661417,-9.84252 0.992126,-19.6693 0.992126,-29.4961l0 -349.008 -92 0 0 310.504c0,24 -0.992126,46.8346 -3.16535,68.5039 -2.17323,21.6535 -6.66142,38.9921 -13.3386,52 -7.49606,14 -18.3307,24.4882 -32.3307,31.4961 -14,6.99213 -34.1575,10.5039 -60.5039,10.5039 -24.9921,0 -50.1575,-6.17323 -75.3228,-18.5039 -25.1654,-12.3307 -50.3307,-28.1732 -75.3386,-47.3386l0 -407.165 -92 0 0 545.008 92 0 0 -60.5039c28.6614,23.6693 57.1654,42.1575 85.6693,55.4961 28.5039,13.3386 58.8346,20 90.9921,20 37.1654,0 68.6772,-7.82677 94.5039,-23.3386 25.8425,-15.6535 45.1654,-37.1654 57.8425,-64.8346 37.1654,31.1811 70.9921,53.6693 101.654,67.5118 30.5039,13.8268 63.1654,20.6614 98,20.6614 60,0 104.173,-18.1732 132.677,-54.3307 28.4882,-36.3307 42.6614,-87.0079 42.6614,-152l0 -353.669z"
     id="path12" /></glyph>
   <glyph
   unicode=" "
   horiz-adv-x="351"
   id="glyph16" />
   <glyph
   unicode="S"
   horiz-adv-x="683"
   id="glyph20"><path
     d="M625.008 207.496c0,-28.1575 -6.67717,-56.1575 -19.8425,-83.8268 -13.1654,-27.6693 -31.4961,-51.1654 -55.3386,-70.3307 -26,-20.8346 -56.3307,-37.0079 -90.9921,-48.8346 -34.5039,-11.6693 -76.3307,-17.5118 -125.008,-17.5118 -52.3307,0 -99.4961,4.83465 -141.323,14.6772 -41.6693,9.66929 -84.1732,24.1575 -127.496,43.3386l0 120.992 6.8189 0c36.6772,-30.3307 79.0079,-53.8268 127.181,-70.3307 48,-16.5039 93.1654,-24.6614 135.496,-24.6614 59.6693,0 106.331,11.1654 139.496,33.4961 33.3386,22.3307 50,52.1575 50,89.4961 0,32.1732 -7.82677,55.8268 -23.6693,71.1654 -15.6693,15.3386 -39.6693,27.1654 -71.8268,35.6693 -24.5039,6.50394 -50.8346,11.8268 -79.3386,16 -28.5039,4.33071 -58.6614,9.66929 -90.5039,16.1732 -64.3307,13.6535 -112,36.9921 -143.165,70 -30.9921,32.9921 -46.4882,76 -46.4882,129.165 0,60.8346 25.6535,110.661 77.1654,149.496 51.4961,38.8346 116.661,58.3307 195.827,58.3307 51.1654,0 98,-4.83465 140.661,-14.6614 42.6772,-9.66929 80.5039,-21.8425 113.339,-36.1732l0 -114.157 -6.83465 0c-27.6693,23.3228 -64,42.6614 -108.992,58 -45.1654,15.3228 -91.1654,22.9921 -138.346,22.9921 -51.8268,0 -93.3228,-10.6614 -124.661,-32 -31.4961,-21.4961 -47.1654,-48.9921 -47.1654,-82.6614 0,-30.1732 7.82677,-54 23.3386,-71.1654 15.6693,-17.3386 43.1654,-30.5039 82.4882,-39.5118 20.8346,-4.66142 50.3465,-10.1575 88.6772,-16.6614 38.5039,-6.50394 70.9921,-13.1654 97.6693,-20 54,-14.3307 94.4882,-36 121.827,-64.8346 27.3386,-28.9921 41.0079,-69.4961 41.0079,-121.669z"
     id="path18" /></glyph>
   <glyph
   unicode="r"
   horiz-adv-x="426"
   id="glyph24"><path
     d="M431.008 445.008l-4.83465 0c-13.8425,3.16535 -27.0079,5.49606 -40,6.8189 -12.8346,1.51181 -28,2.17323 -45.6693,2.17323 -28.3307,0 -55.8425,-6.33071 -82.1732,-18.8346 -26.5039,-12.5039 -51.8268,-28.6614 -76.3307,-48.5039l0 -386.661 -92 0 0 545.008 92 0 0 -80.5039c36.5039,29.3228 68.6614,50 96.6614,62.1575 27.8425,12.1732 56.3465,18.3465 85.3386,18.3465 16,0 27.4961,-0.346457 34.6614,-1.1811 7.16535,-0.818898 18,-2.33071 32.3465,-4.66142l0 -94.1575z"
     id="path22" /></glyph>
   <glyph
   unicode="o"
   horiz-adv-x="607"
   id="glyph28"><path
     d="M555.008 272.331c0,-88.8346 -22.8346,-158.835 -68.3465,-210.331 -45.4961,-51.3386 -106.488,-77.0079 -182.835,-77.0079 -77.1654,0 -138.331,25.6693 -183.827,77.0079 -45.3386,51.4961 -68,121.496 -68,210.331 0,88.6772 22.6614,158.835 68,210.331 45.4961,51.5118 106.661,77.3386 183.827,77.3386 76.3465,0 137.339,-25.8268 182.835,-77.3386 45.5118,-51.4961 68.3465,-121.654 68.3465,-210.331zm-95.0079 0c0,70.1732 -13.8268,122.331 -41.3386,156.504 -27.6535,34.1732 -65.8268,51.1654 -114.835,51.1654 -49.6535,0 -88.3307,-16.9921 -115.654,-51.1654 -27.5118,-34.1732 -41.1654,-86.3307 -41.1654,-156.504 0,-68 13.8268,-119.496 41.3228,-154.661 27.6693,-35.1654 66.1732,-52.6614 115.496,-52.6614 48.6772,0 86.8346,17.3228 114.504,52.1575 27.8425,34.8346 41.6693,86.5039 41.6693,155.165z"
     id="path26" /></glyph>
   <glyph
   unicode="i"
   horiz-adv-x="274"
   id="glyph32"><path
     d="M188 637.008l-104 0 0 94.9921 104 0 0 -94.9921zm-6 -637.008l-92 0 0 545.008 92 0 0 -545.008z"
     id="path30" /></glyph>
   <glyph
   unicode="G"
   horiz-adv-x="775"
   id="glyph36"><path
     d="M704 52.8346c-39.6693,-18.1732 -83.1654,-34 -130.173,-47.4961 -46.9921,-13.5118 -92.4882,-20.3465 -136.488,-20.3465 -56.6772,0 -108.504,7.84252 -155.669,23.5118 -47.3386,15.6693 -87.4961,38.9921 -120.661,70.3307 -33.5118,31.6693 -59.5118,71.1654 -77.6693,118.504 -18.1732,47.3228 -27.3386,102.835 -27.3386,166.331 0,116.331 34,208.157 101.827,275.496 68,67.1654 161.181,100.835 279.843,100.835 41.3386,0 83.6693,-4.99213 126.835,-14.8346 43.1654,-10 89.6693,-26.8346 139.496,-50.5039l0 -114.661 -8.83465 0c-10,7.66929 -24.6614,17.8268 -43.8268,30.1732 -19.3386,12.4882 -38.1732,22.9921 -56.6772,31.3228 -22.4882,9.84252 -48,18.1732 -76.4882,24.6772 -28.5039,6.48819 -60.8346,9.82677 -97.0079,9.82677 -81.3386,0 -145.669,-26 -193.165,-78.1732 -47.3386,-52.1575 -70.9921,-122.661 -70.9921,-211.654 0,-93.8425 24.6614,-166.835 74.1575,-219.008 49.3386,-52.1575 116.661,-78.1575 201.843,-78.1575 31.1654,0 62.3307,2.99213 93.3228,9.16535 31.0079,6.15748 58.3307,14.1575 81.6693,23.8268l0 177.008 -194.992 0 0 86 290.992 0 0 -312.173z"
     id="path34" /></glyph>
  </font>
  <font
   id="FontID0"
   horiz-adv-x="666"
   font-variant="normal"
   style="fill-rule:nonzero"
   font-style="normal"
   font-weight="400">
	<font-face
   font-family="Arial"
   id="font-face39">
	</font-face>
   <missing-glyph
   id="missing-glyph43"><path
     d="M0 0z"
     id="path41" /></missing-glyph>
   <glyph
   unicode="c"
   horiz-adv-x="500"
   id="glyph47"><path
     d="M405.003 189.994l86.0086 -12.0001c-9.51976,-59.1501 -33.5199,-105.332 -72.3549,-138.828 -38.835,-33.4963 -86.6464,-50.1736 -143.151,-50.1736 -70.8431,0 -127.844,23.1734 -170.836,69.4966 -43.1814,46.3468 -64.6777,112.678 -64.6777,199.017 0,55.9847 9.33078,104.835 27.8506,146.836 18.4962,41.835 46.6539,73.3234 84.6621,94.1582 37.8192,21.0002 78.9927,31.4884 123.662,31.4884 56.1737,0 102.332,-14.1497 138.001,-42.6618 35.8349,-28.4884 58.843,-69.0005 68.8352,-121.324l-84.9928 -12.9922c-8.17329,34.8192 -22.512,60.9926 -43.3468,78.662 -20.6695,17.5041 -45.6618,26.3388 -75.0006,26.3388 -44.3389,0 -80.3392,-15.8505 -108.166,-47.5043 -27.6616,-31.8428 -41.5043,-81.851 -41.5043,-150.497 0,-69.6856 13.3466,-120.166 40.0161,-151.678 26.8349,-31.4884 61.654,-47.339 104.481,-47.339 34.6774,0 63.5202,10.5119 86.5046,31.6774 23.1734,21.0002 37.8428,53.5044 44.0082,97.3236z"
     id="path45" /></glyph>
   <glyph
   unicode="ü"
   horiz-adv-x="556"
   id="glyph51"><path
     d="M405.003 0l0 77.1738c-40.3468,-58.843 -95.0086,-88.1818 -164.175,-88.1818 -30.4963,0 -58.9847,5.83469 -85.4889,17.5041 -26.5041,11.8347 -46.1815,26.5041 -59.0083,44.1736 -12.8269,17.8348 -21.8269,39.4964 -27.0002,65.1737 -3.49609,17.3151 -5.33862,44.646 -5.33862,81.9928l0 321.168 88.0164 0 0 -287.175c0,-45.8271 1.81891,-76.8195 5.315,-92.67 5.50398,-23.1498 17.1734,-41.1499 35.1735,-54.3311 17.8348,-13.1576 39.8271,-19.8191 66.1659,-19.8191 26.3388,0 51.0004,6.66147 74.0085,20.1498 22.9844,13.5119 39.331,32.0081 48.9925,55.1815 9.49614,23.1498 14.3387,57.0004 14.3387,101.15l0 277.514 87.9928 0 0 -519.004 -78.9927 0zm-270.002 582.997l0 99.9929 92.0086 0 0 -99.9929 -92.0086 0zm182.009 0l0 99.9929 91.985 0 0 -99.9929 -91.985 0z"
     id="path49" /></glyph>
   <glyph
   unicode="n"
   horiz-adv-x="556"
   id="glyph55"><path
     d="M66.0005 0l0 519.004 78.9927 0 0 -73.6777c38.0082,56.5044 93.0007,84.6621 164.836,84.6621 31.3467,0 60.0005,-5.64571 86.1739,-16.819 26.1734,-11.1733 45.8271,-26.0081 58.8194,-44.1736 13.0159,-18.1655 22.1813,-39.8271 27.3545,-64.8194 3.16538,-16.3466 4.81894,-44.835 4.81894,-85.5125l0 -318.664 -87.9928 0 0 315.333c0,35.8349 -3.33073,62.6698 -10.1812,80.3392 -6.82683,17.6694 -18.9923,31.8191 -36.331,42.4964 -17.3151,10.4883 -37.8192,15.8269 -61.158,15.8269 -37.3231,0 -69.4966,-11.8347 -96.6622,-35.6696 -27.1656,-23.6695 -40.6775,-68.8352 -40.6775,-135.166l0 -283.16 -87.9928 0z"
     id="path53" /></glyph>
   <glyph
   unicode="h"
   horiz-adv-x="556"
   id="glyph59"><path
     d="M66.0005 0l0 715.99 87.9928 0 0 -257.648c40.8428,47.835 92.3393,71.6462 154.678,71.6462 38.1499,0 71.3391,-7.48825 99.6622,-22.6537 28.1577,-15.1655 48.3311,-36.0003 60.4965,-62.6698 12.1655,-26.6695 18.1655,-65.5045 18.1655,-116.174l0 -328.491 -87.9928 0 0 328.16c0,43.8429 -9.49614,75.851 -28.3467,95.8354 -18.9923,20.008 -45.6618,30.0002 -80.3156,30.0002 -25.8427,0 -50.1736,-6.66147 -73.0163,-20.1734 -22.8191,-13.4883 -39.0003,-31.8191 -48.8272,-54.9926 -9.66149,-23.0081 -14.5041,-54.8272 -14.5041,-95.5047l0 -283.325 -87.9928 0z"
     id="path57" /></glyph>
   <glyph
   unicode="e"
   horiz-adv-x="556"
   id="glyph63"><path
     d="M420.003 168.001l90.9928 -12.0001c-14.1733,-52.8429 -40.6539,-93.9929 -79.3235,-123.166 -38.6696,-29.1735 -88.0164,-43.8429 -148.182,-43.8429 -75.662,0 -135.662,23.3388 -180.001,70.0163 -44.3153,46.4886 -66.4966,111.993 -66.4966,196.159 0,87.0007 22.3466,154.655 67.1816,202.655 44.835,48.1657 102.993,72.1659 174.497,72.1659 69.1659,0 125.67,-23.4805 169.49,-70.6541 43.8429,-47.1736 65.8352,-113.505 65.8352,-198.994 0,-5.17327 -0.165356,-13.0159 -0.496067,-23.3388l-386.507 0c3.33073,-56.8351 19.3466,-100.513 48.3311,-130.678 28.8427,-30.1656 65.0084,-45.3311 108.166,-45.3311 32.1735,0 59.6698,8.504 82.3471,25.512 22.8191,16.9844 40.8192,44.1736 54.1658,81.4967zm-288.002 141.001l288.994 0c-3.8268,43.6539 -15.0001,76.3234 -33.1656,98.174 -27.827,33.827 -64.158,50.835 -108.662,50.835 -40.3232,0 -74.1738,-13.5119 -101.67,-40.5121 -27.3309,-27.0002 -42.4964,-63.1659 -45.4964,-108.497z"
     id="path61" /></glyph>
   <glyph
   unicode=","
   horiz-adv-x="277"
   id="glyph67"><path
     d="M89.0086 0l0 99.9929 99.9929 0 0 -99.9929c0,-36.8271 -6.49611,-66.6619 -19.6773,-89.3393 -12.9922,-22.6537 -33.827,-40.3232 -62.3155,-52.654l-24.0002 37.9846c18.6616,8.17329 32.3152,20.1734 40.9846,35.8349 8.83472,15.8505 13.8426,38.5042 14.8348,68.1738l-49.8193 0z"
     id="path65" /></glyph>
   <glyph
   unicode="m"
   horiz-adv-x="832"
   id="glyph71"><path
     d="M66.0005 0l0 519.004 78.9927 0 0 -73.347c16.1812,25.3467 37.8428,45.8508 64.843,61.1816 27.0002,15.4962 57.6619,23.1498 92.174,23.1498 38.3153,0 69.8273,-7.98431 94.3236,-23.8112 24.4963,-16.0159 41.835,-38.1735 51.8272,-66.8509 41.3389,60.4965 94.8433,90.6621 160.844,90.6621 51.6618,0 91.4889,-14.1497 119.151,-42.6618 27.8506,-28.4884 41.835,-72.3313 41.835,-131.505l0 -355.822 -87.9928 0 0 326.672c0,34.9845 -3.00002,60.3312 -8.66936,75.8274 -5.66934,15.4962 -15.9923,27.827 -31.1577,37.3231 -15.0001,9.51976 -32.6695,14.1733 -52.8429,14.1733 -36.6617,0 -66.9927,-12.1655 -91.1582,-36.331 -24.1655,-24.3309 -36.1656,-63.1659 -36.1656,-116.505l0 -301.16 -87.9928 0 0 336.829c0,39.0003 -7.18116,68.3391 -21.5199,87.8275 -14.3151,19.512 -37.8192,29.3388 -70.3234,29.3388 -24.6616,0 -47.5043,-6.49611 -68.5045,-19.4883 -21.0002,-13.0159 -36.1656,-32.0081 -45.6618,-57.1658 -9.33078,-25.0159 -14.008,-61.1816 -14.008,-108.332l0 -269.01 -87.9928 0z"
     id="path69" /></glyph>
   <glyph
   unicode="K"
   horiz-adv-x="666"
   id="glyph75"><path
     d="M72.9927 0l0 715.99 95.0086 0 0 -354.995 355.656 354.995 128.34 0 -300.333 -290.317 313.325 -425.673 -124.985 0 -254.837 361.326 -117.166 -113.316 0 -248.01 -95.0086 0z"
     id="path73" /></glyph>
   <glyph
   unicode="S"
   horiz-adv-x="666"
   id="glyph79"><path
     d="M45.9925 230.01l89.0086 7.98431c4.15751,-36.0003 14.008,-65.5045 29.5042,-88.6542 15.4962,-23.0081 39.4964,-41.6696 72.0006,-56.0083 32.5042,-14.1733 69.1659,-21.3309 109.82,-21.3309 36.1656,0 68.0084,5.33862 95.67,16.1576 27.6616,10.8426 48.1657,25.6774 61.6777,44.5043 13.4883,18.8269 20.3151,39.331 20.3151,61.3469 0,22.323 -6.49611,41.835 -19.4883,58.654 -12.9922,16.6773 -34.4885,30.6617 -64.4887,42.1657 -19.1813,7.34651 -61.6777,19.0159 -127.513,34.8428 -65.8352,15.8269 -111.828,30.6617 -138.166,44.6696 -34.1577,18.0001 -59.5044,40.3232 -76.1581,66.8273 -16.8427,26.5041 -25.1813,56.339 -25.1813,89.1739 0,36.331 10.3465,70.158 30.8506,101.481 20.4805,31.5121 50.3154,55.3469 89.8117,71.6699 39.3546,16.3466 83.1739,24.4963 131.34,24.4963 53.0083,0 99.8276,-8.48038 140.34,-25.6537 40.4885,-17.008 71.6699,-42.1657 93.4968,-75.4967 21.8269,-33.1656 33.4963,-70.8431 35.1735,-112.843l-91.0165 -6.99218c-4.81894,45.1657 -21.3309,79.3235 -49.4886,102.332 -28.1577,23.1734 -69.8273,34.6538 -124.844,34.6538 -57.3312,0 -99.1661,-10.4883 -125.316,-31.4884 -26.1734,-21.0002 -39.331,-46.3232 -39.331,-75.9927 0,-25.6774 9.33078,-46.8429 27.827,-63.4966 18.3309,-16.5119 65.8352,-33.6853 142.82,-51.0004 77.0085,-17.5041 129.851,-32.6695 158.505,-45.6854 41.5043,-19.1576 72.3313,-43.3232 92.174,-72.8273 19.8427,-29.3388 29.6695,-63.1659 29.6695,-101.505 0,-38.1499 -10.8426,-73.8195 -32.6695,-107.505 -21.8269,-33.6617 -53.0083,-59.8115 -93.8275,-78.4967 -40.8428,-18.6616 -86.67,-27.9923 -137.836,-27.9923 -64.6777,0 -118.843,9.49614 -162.497,28.3231 -43.8429,18.8505 -78.0006,47.1736 -102.851,85.1818 -24.9923,37.8192 -37.9846,80.6699 -39.331,128.505z"
     id="path77" /></glyph>
   <glyph
   unicode="u"
   horiz-adv-x="556"
   id="glyph83"><path
     d="M405.003 0l0 77.1738c-40.3468,-58.843 -95.0086,-88.1818 -164.175,-88.1818 -30.4963,0 -58.9847,5.83469 -85.4889,17.5041 -26.5041,11.8347 -46.1815,26.5041 -59.0083,44.1736 -12.8269,17.8348 -21.8269,39.4964 -27.0002,65.1737 -3.49609,17.3151 -5.33862,44.646 -5.33862,81.9928l0 321.168 88.0164 0 0 -287.175c0,-45.8271 1.81891,-76.8195 5.315,-92.67 5.50398,-23.1498 17.1734,-41.1499 35.1735,-54.3311 17.8348,-13.1576 39.8271,-19.8191 66.1659,-19.8191 26.3388,0 51.0004,6.66147 74.0085,20.1498 22.9844,13.5119 39.331,32.0081 48.9925,55.1815 9.49614,23.1498 14.3387,57.0004 14.3387,101.15l0 277.514 87.9928 0 0 -519.004 -78.9927 0z"
     id="path81" /></glyph>
   <glyph
   unicode="d"
   horiz-adv-x="556"
   id="glyph87"><path
     d="M401.011 0l0 65.8352c-32.8349,-51.1658 -81.166,-76.8431 -145.017,-76.8431 -41.3389,0 -79.3235,11.3387 -113.836,34.1814 -34.6538,22.6537 -61.4887,54.4965 -80.6699,95.1504 -18.9923,40.8428 -28.4884,87.6857 -28.4884,140.67 0,51.6618 8.66936,98.5047 25.8427,140.67 17.3151,42.0003 43.1578,74.3392 77.6463,96.6622 34.3467,22.512 73.0163,33.6617 115.513,33.6617 31.3231,0 59.1737,-6.66147 83.5046,-19.8191 24.3309,-13.1576 44.15,-30.4963 59.5044,-51.6618l0 257.482 87.9928 0 0 -715.99 -81.9928 0zm-278.01 258.829c0,-66.3312 14.008,-115.82 42.1657,-148.655 27.9923,-32.8349 61.158,-49.1815 99.3315,-49.1815 38.5042,0 71.1738,15.6852 98.174,47.0082 26.8349,31.3231 40.3232,79.1581 40.3232,143.505 0,70.6541 -13.6537,122.67 -41.1736,155.836 -27.3309,33.1656 -61.158,49.6539 -101.316,49.6539 -39.1657,0 -71.8352,-15.8269 -98.174,-47.6697 -26.1734,-31.8191 -39.331,-81.9928 -39.331,-150.497z"
     id="path85" /></glyph>
   <glyph
   unicode=" "
   horiz-adv-x="277"
   id="glyph89" />
   <glyph
   unicode="r"
   horiz-adv-x="333"
   id="glyph93"><path
     d="M65.0084 0l0 519.004 78.9927 0 0 -79.5124c20.1734,36.8507 38.835,61.1816 56.0083,72.851 17.1497,11.8347 36.0003,17.6458 56.4808,17.6458 29.6695,0 59.8351,-9.33078 90.5204,-27.827l-31.3467 -81.166c-21.3309,12.0001 -42.6618,18.0001 -63.9926,18.0001 -19.1813,0 -36.331,-5.83469 -51.4965,-17.3387 -15.1655,-11.4804 -26.0081,-27.4963 -32.5042,-48.0004 -9.82685,-31.1577 -14.6694,-65.3155 -14.6694,-102.497l0 -271.16 -87.9928 0z"
     id="path91" /></glyph>
   <glyph
   unicode="o"
   horiz-adv-x="556"
   id="glyph97"><path
     d="M33.0003 259.49c0,95.8354 26.6695,166.844 80.1739,213.002 44.5043,38.3389 99.0008,57.4965 163.159,57.4965 71.1738,0 129.497,-23.3151 174.828,-69.9927 45.1657,-46.4886 67.8431,-111.001 67.8431,-193.159 0,-66.6619 -10.0158,-119.009 -30.0002,-157.159 -20.008,-38.1735 -49.1815,-67.8431 -87.4968,-89.0086 -38.1735,-21.1655 -80.0085,-31.6774 -125.174,-31.6774 -72.662,0 -131.34,23.1734 -176.175,69.6856 -44.835,46.4886 -67.158,113.481 -67.158,200.813zm90.0007 -0.165356c0,-66.3312 14.5041,-115.985 43.4885,-148.82 29.1735,-33.0003 65.6698,-49.5122 109.843,-49.5122 43.6775,0 80.0085,16.5119 109.158,49.6776 29.0081,33.1656 43.5122,83.67 43.5122,151.489 0,64.0163 -14.6694,112.513 -43.8429,145.348 -29.1498,33.0003 -65.5045,49.4886 -108.828,49.4886 -44.1736,0 -80.6699,-16.323 -109.843,-49.1579 -28.9845,-32.8349 -43.4885,-82.3471 -43.4885,-148.513z"
     id="path95" /></glyph>
   <glyph
   unicode="l"
   horiz-adv-x="222"
   id="glyph101"><path
     d="M63.9926 0l0 715.99 88.0164 0 0 -715.99 -88.0164 0z"
     id="path99" /></glyph>
   <glyph
   unicode="i"
   horiz-adv-x="222"
   id="glyph105"><path
     d="M66.0005 615.997l0 99.9929 87.9928 0 0 -99.9929 -87.9928 0zm0 -615.997l0 519.004 87.9928 0 0 -519.004 -87.9928 0z"
     id="path103" /></glyph>
  </font>
</defs>
</svg>
