<svg xmlns="http://www.w3.org/2000/svg">
<defs>
<font id="FontID0" horiz-adv-x="739" font-variant="normal" style="fill-rule:nonzero" font-weight="400,700" horiz-origin-x="0" horiz-origin-y="0" vert-origin-x="512" vert-origin-y="768" vert-adv-y="1024"><font-face font-family="Century Gothic" id="font-face2"/><missing-glyph id="missing-glyph6"><path d="M0 0z" id="path4"/></missing-glyph><glyph unicode="f" horiz-adv-x="314" id="glyph10"><path d="M296 735.331v-66.496C270.835 679.67 249.165 685 231.165 685c-13.496 0-24.661-2.669-33.496-8-8.834-5.33-14.504-11.496-16.669-18.496-2.33-7-3.496-25.67-3.496-55.834V531H289v-59H177.33L177 0h-68v472H39v59h70v82.67c0 38 3.504 65.165 10.504 81.33 7 16.166 19 29.331 35.827 39.166C172 744 192.33 749 216.166 749 238.33 749 265 744.504 296 735.331z" id="path8"/></glyph><glyph unicode="0" horiz-adv-x="554" id="glyph14"><path d="M31.996 358.834c0 94.666 10.17 167.836 30.508 219.498 20.327 51.839 48.993 91.005 86.162 117.674 37.005 26.658 78.497 39.992 124.501 39.992 46.5 0 88.667-13.5 126.333-40.335 37.665-26.835 67.665-66.992 89.504-120.662 21.992-53.67 33-125.836 33-216.167 0-90.166-10.842-162-32.504-215.328-21.661-53.339-51.496-93.508-89.504-120.674-37.997-27.165-80.328-40.83-126.828-40.83-46.005 0-87.332 13.169-124.005 39.496C112.336 47.837 83.67 87.168 63 139.338c-20.67 52.335-31.005 125.328-31.005 219.498zm68.009-1.335c0-81 7.157-142.336 21.661-183.828 14.504-41.504 36-73.004 64.336-94.5 28.334-21.508 58.17-32.174 89.835-32.174 31.83 0 61.666 10.5 89.327 31.5 27.674 21 48.674 52.5 63 94.501C446 223.998 455 285.499 455 357.499c0 72.331-7.996 131.34-24 177.497-15.827 46.004-37.997 79.666-66.166 101.009-28.004 21.33-57.84 31.996-88.997 31.996-32.008 0-61.831-10.665-89.835-31.996-28.005-21.343-49.335-52.666-64.005-94.17-14.67-41.504-21.992-103.005-21.992-184.336z" id="path12"/></glyph><glyph unicode="t" horiz-adv-x="299" id="glyph18"><path d="M83.002 726.999H216V531.001h78.998V416.003H216V0H83.002v416.003H15v114.998h68.002v195.998z" id="path16"/></glyph><glyph unicode="c" horiz-adv-x="640" id="glyph22"><path d="m586.997 423.001-110.829-60.998c-20.835 21.832-41.333 36.832-61.666 45.33-20.338 8.499-44.167 12.668-71.504 12.668-49.83 0-90.165-14.835-120.833-44.333-30.832-29.67-46.163-67.5-46.163-113.835 0-45 14.829-81.667 44.333-110.168 29.663-28.5 68.498-42.667 116.664-42.667 59.504 0 105.833 20.332 139.17 61.004l104.829-72c-57-74.002-137.333-111-241.164-111-93.503 0-166.666 27.667-219.502 82.83-52.831 55.17-79.33 119.67-79.33 193.667 0 51.336 12.833 98.504 38.499 141.668 25.83 43.169 61.665 77.167 107.835 101.835 45.998 24.667 97.5 36.998 154.5 36.998C394.666 544 442 533.5 484 512.5c42-21 76.335-50.835 102.998-89.499z" id="path20"/></glyph><glyph unicode="n" horiz-adv-x="609" id="glyph26"><path d="M76 531h68v-95.165c27.504 36.33 57.835 63.496 91 81.33C268.33 535 304.504 544 343.669 544c39.835 0 75.165-10 106-30.165 30.835-20.166 53.661-47.331 68.33-81.504 14.67-34 22-87.166 22-159.331V0h-68v253c0 61-2.669 101.835-7.834 122.33-8.33 35-23.661 61.34-46.165 79.174C395.504 472.165 366.165 481 330 481c-41.496 0-78.67-13.67-111.331-41-32.835-27.165-54.504-61-64.835-101.331-6.504-26.339-9.835-74.339-9.835-144.165V0H76v531z" id="path24"/></glyph><glyph unicode="k" horiz-adv-x="579" id="glyph30"><path d="M68.002 735.999H201V312.165L397.666 531h166.335l-227.67-253.5L592.501-.001H427L201.001 244.83V-.001H68.003v735.999z" id="path28"/></glyph><glyph unicode="5" horiz-adv-x="559" id="glyph34"><path d="M166.666 717.999h336.337v-126H268.831l-29.167-131.835c8.002 2.339 16.004 4.004 23.834 5.167a152.129 152.129 0 0 0 22.5 1.672c65.002 0 119.168-22.17 162.337-66.503 43.164-44.332 64.666-101.002 64.666-170.168 0-69.832-23.835-128.664-71.498-176.498C393.668 6 335.663-18 267.33-18 206-18 153.5-.502 109.5 34.5 65.498 69.33 36.667 117.165 23 177.998h144c10.997-22.329 25.5-39.331 43.666-50.829 18-11.504 37.83-17.167 59.663-17.167 30.172 0 55.837 10.83 77.002 32.498 21.166 21.667 31.666 49.5 31.666 83.498 0 33-9.833 60-29.498 81.165C329.834 328.335 306 339 278 339c-15 0-29.669-3.667-44.167-11.167-14.504-7.335-28.671-18.502-42.667-33.502L79.83 319.335l86.834 398.664z" id="path32"/></glyph><glyph unicode="2" horiz-adv-x="554" id="glyph38"><path d="M115.997 492.996h-69c2.007 71.008 25.5 129.166 70.83 174.675 45.344 45.496 101.34 68.327 168.002 68.327 65.835 0 119.174-21.33 160.005-63.992 40.83-42.674 61.17-93.001 61.17-151.005 0-40.831-9.84-79.005-29.34-114.662-19.5-35.67-57.33-84.001-113.492-144.84L184.997 67.997h331.999V0H30l273.664 295.502c55.5 59.835 91.5 103.997 108.332 132.993C428.66 457.338 437 487.67 437 519.665c0 40.5-15 75.331-45 104.505-30 29.162-66.662 43.831-110.162 43.831-45.674 0-83.67-15.33-114.002-46.004-30.33-30.662-47.67-73.666-51.839-129.001z" id="path36"/></glyph><glyph unicode="v" horiz-adv-x="554" id="glyph42"><path d="M25.996 531.004h71.505l178.832-387.676L453.83 531.004H527L283.998 0h-13.004L25.996 531.004z" id="path40"/></glyph><glyph unicode="e" horiz-adv-x="640" id="glyph46"><path d="M598.501 228H171c6.165-37.837 22.665-68.002 49.335-90.502 26.663-22.329 60.832-33.496 102.166-33.496 49.665 0 92.167 17.498 127.83 52.5L562 103.665c-27.833-39.667-61.335-69-100.164-88.163-39-19.004-85.17-28.5-138.668-28.5-83.002 0-150.668 26.167-202.837 78.667C68.167 117.998 42 183.667 42 262.5c0 80.835 26.167 147.998 78.33 201.331 52.17 53.504 117.503 80.168 196.336 80.168 83.498 0 151.5-26.664 203.835-79.831 52.334-53.333 78.496-123.502 78.496-211.004L598.5 228zM465.999 332.002c-8.835 28.996-26.167 52.666-51.998 70.83-26.002 18.166-56.002 27.166-90.337 27.166-37.163 0-69.662-10.163-97.83-30.667C208.334 386.663 192 364.163 177 332h289z" id="path44"/></glyph><glyph unicode="b" horiz-adv-x="682" id="glyph50"><path d="M81 0v735.998h67.997V438.996c28.666 35.174 60.674 61.5 96.166 78.84 35.505 17.503 74.34 26.16 116.505 26.16 75.166 0 139.336-27.165 192.498-81.496 53.162-54.496 79.832-120.332 79.832-198.002 0-76.5-26.835-141.993-80.493-196.159-53.67-54.178-118.17-81.343-193.667-81.343-43.335 0-82.5 9.165-117.674 27.508-35.162 18.33-66.166 45.992-93.166 83.162V0H81zm273.83 52.996c37.842 0 73.004 9.343 105 27.84 32.174 18.66 57.674 44.834 76.667 78.496 19.004 33.496 28.5 69.166 28.5 106.666s-9.496 73.335-28.666 107.339c-19.17 33.827-44.835 60.331-77.162 79.323-32.339 18.84-66.839 28.335-103.5 28.335-37.17 0-72.675-9.496-106.336-28.335-33.496-18.992-59.327-44.492-77.327-76.488-18-32.008-27-68.009-27-108.178 0-61.158 20.161-112.324 60.661-153.332C246.002 73.5 295.668 52.996 354.83 52.996z" id="path48"/></glyph><glyph unicode="s" horiz-adv-x="440" id="glyph54"><path d="m392.003 455.836-82.335-82.837c-33.337 33.337-63.667 50.002-91.004 50.002-14.829 0-26.498-3.165-34.996-9.502-8.504-6.33-12.667-14.167-12.667-23.498 0-7.17 2.663-13.665 8.002-19.665 5.332-6 18.661-14.168 39.832-24.668l48.668-24.336c51.33-25.164 86.663-51 105.833-77.168 19.163-26.332 28.665-57 28.665-92.333 0-46.996-17.332-86.332-51.998-117.662-34.671-31.5-81.171-47.167-139.5-47.167C133.17-12.998 71.168 17.167 25 77.669l82.17 89.333c15.667-18.171 33.998-33 55.163-44.167 21-11.167 39.668-16.837 56.002-16.837 17.498 0 31.831 4.17 42.502 12.668C271.667 127.17 277 136.83 277 147.833c0 20.498-19.335 40.5-58.164 59.835l-44.834 22.5c-86.003 43.163-129 97.163-129 162 0 41.835 16.169 77.663 48.502 107.333 32.332 29.663 73.665 44.498 123.998 44.498 34.5 0 66.832-7.665 97.334-22.83 30.331-15.166 55.997-37.005 77.168-65.334z" id="path52"/></glyph><glyph unicode="m" horiz-adv-x="939" id="glyph58"><path d="M66 531.001h132.998v-62.002c22.837 25.17 48.166 44.002 76.17 56.333 27.832 12.502 58.334 18.667 91.334 18.667 33.166 0 63.331-8.167 90-24.502 26.83-16.329 48.331-40.329 64.666-71.663 21.165 31.334 47.167 55.334 78 71.663C630.001 535.832 663.834 544 700.336 544c37.831 0 71.162-8.835 99.833-26.333 28.83-17.498 49.329-40.5 61.996-68.663 12.502-28.335 18.833-74.339 18.833-138V0H748v268.335c0 60-7.5 100.666-22.665 121.83-15.166 21.166-38.002 31.838-68.168 31.838-23.167 0-43.83-6.502-62.002-19.5-18.33-12.839-31.996-30.839-40.83-53.67C545.5 326.003 541 289.335 541 238.665V0H408.002v256.164c0 47.339-3.502 81.668-10.666 102.84-7.004 21.33-17.67 36.997-31.671 47.497-14.162 10.335-31.329 15.502-51.331 15.502-22.335 0-42.667-6.502-60.833-19.671-18.336-13.163-31.836-31.5-41.002-55.163-9-23.67-13.5-61.005-13.5-111.833V0H66.001v531z" id="path56"/></glyph><glyph unicode="H" horiz-adv-x="680" id="glyph62"><path d="M81 717.999h138.998V447h240v270.999h138V0h-138v315.001h-240V0H81v717.999z" id="path60"/></glyph><glyph unicode="u" horiz-adv-x="600" id="glyph66"><path d="M66.998 531.001h135V275.664c0-49.666 3.502-84.165 10.335-103.5 6.833-19.329 17.835-34.329 33-45.165C260.498 116.333 279.331 111 301.5 111c22.164 0 41.168 5.333 56.664 15.833 15.502 10.5 27 26.002 34.5 46.5 5.504 15.331 8.339 48 8.339 98.003v259.666H534v-224.67c0-92.664-7.335-156-22.004-190.164-17.83-41.67-44.333-73.5-79.164-95.835C398.003-1.831 353.663-12.998 300-12.998c-58.335 0-105.337 12.998-141.33 39-36.001 25.996-61.336 62.167-76.005 108.668-10.5 32.162-15.667 90.662-15.667 175.494v220.837z" id="path64"/></glyph><glyph unicode="d" horiz-adv-x="660" id="glyph70"><path d="M459.999 735.999h132.998V0H459.999v56.498c-25.996-24.667-52.163-42.33-78.33-53.167C355.5-7.5 327-13 296.498-13c-68.835 0-128.168 26.499-178.33 79.666C68.003 119.67 43 185.663 43 264.502c0 81.833 24.336 148.831 72.832 201.166C164.333 517.832 223.164 544 292.501 544c32.002 0 61.83-6 89.835-17.834 27.998-12 53.829-30 77.663-53.83V736zM319.831 422.002c-41.333 0-75.668-14.504-102.833-43.671-27.33-28.996-40.996-66.331-40.996-111.833 0-45.833 13.83-83.498 41.663-113.168 27.833-29.498 62.003-44.333 102.668-44.333 41.835 0 76.666 14.504 104.168 43.671C452.17 181.664 466 219.832 466 267c0 46.164-13.831 83.498-41.499 112.164-27.502 28.5-62.498 42.839-104.669 42.839z" id="path68"/></glyph><glyph unicode="1" horiz-adv-x="559" id="glyph74"><path d="M164.168 717.999h204.833V0H233.003v589.997H84.999l79.17 128.002z" id="path72"/></glyph><glyph horiz-adv-x="276" id="glyph76"/><glyph unicode="r" horiz-adv-x="300" id="glyph80"><path d="M49.996 531.004h70.005v-77.67c20.835 30.662 42.827 53.327 66 68.327 23.162 14.835 47.328 22.335 72.332 22.335 19.004 0 39.165-6 60.662-18l-35.658-57.331c-14.339 6.165-26.339 9.33-36.166 9.33-22.842 0-44.835-9.33-66-27.992-21.166-18.673-37.335-47.835-48.508-87.166C124.17 332.672 120 271.502 120 179.505V0H49.997v531.004z" id="path78"/></glyph><glyph unicode="a" horiz-adv-x="683" id="glyph84"><path d="M605 531V0h-68v91.33c-28.67-34.826-60.67-61-96.33-78.33C405.164-4.33 366.164-13 324-13c-75 0-139.165 27.165-192.33 81.504C78.503 123 52 189 52 267c0 76.165 26.835 141.504 80.504 195.669 53.496 54.165 118 81.33 193.496 81.33 43.504 0 82.835-9.165 118.165-27.496 35.165-18.338 66.165-46 92.835-83.173V531h68zm-273.669-53c-38 0-73.165-9.33-105.165-28-32.165-18.496-57.661-44.67-76.661-78.33-19-33.67-28.504-69.34-28.504-107 0-37.166 9.504-72.835 28.669-106.836 19.165-34 44.835-60.504 77.165-79.33 32.331-19 67-28.504 104-28.504 37.166 0 72.67 9.33 106 28.165 33.497 18.835 59.166 44.166 77.166 76.339 18 32 27 68.165 27 108.33 0 61.166-20.166 112.332-60.67 153.497-40.33 41.173-90 61.669-149 61.669z" id="path82"/></glyph><glyph unicode="o" horiz-adv-x="654" id="glyph88"><path d="M327.835 544c81.835 0 149.835-29.496 203.669-88.67C580.504 401.505 605 337.67 605 264c0-74-25.835-138.67-77.67-194C475.67 14.669 409-13 327.836-13c-81.67 0-148.504 27.669-200.165 83C75.835 125.33 50 190 50 264c0 73.33 24.504 137 73.504 190.835C177.331 514.33 245.504 544 327.835 544zm-.33-67c-56.835 0-105.505-20.835-146.34-62.67C140.331 372.505 120 321.836 120 262.505c0-38.174 9.33-73.835 27.834-107 18.67-33 43.835-58.504 75.497-76.504 31.503-18 66.338-27 104.173-27 37.826 0 72.661 9 104.165 27 31.661 18 56.834 43.504 75.496 76.504 18.504 33.165 27.834 68.826 27.834 107 0 59.33-20.496 110-61.496 151.827C432.67 456.165 384 477 327.503 477z" id="path86"/></glyph><glyph unicode="l" horiz-adv-x="200" id="glyph92"><path d="M66 736h68V0H66v736z" id="path90"/></glyph><glyph unicode="6" horiz-adv-x="554" id="glyph96"><path d="m366.995 735.998 59.174-38.327-194.671-293.506c25.996 8.504 50.504 12.839 73.335 12.839 57.166 0 105.662-20.67 145.5-61.832 39.828-41.173 59.67-91.843 59.67-152.009 0-41.327-9.673-78.662-28.842-111.993-19.323-33.33-46.5-60-81.827-79.666C363.829-8.16 325.833-18 285.002-18c-39.331 0-76.005 9.496-109.666 28.5-33.84 19.17-60.166 45.84-79.501 80.328-19.17 34.5-28.83 71.504-28.83 110.836 0 29.339 6 60.166 17.822 92.505 12 32.504 33.178 71.327 63.84 117L366.993 736zm-79.158-381.995c-41.835 0-77.34-14.67-106.666-44.174-29.504-29.492-44.174-65.161-44.174-106.997 0-41.67 14.67-77.162 44.174-106.666 29.492-29.504 65.162-44.161 106.832-44.161 41.67 0 77.327 14.657 106.832 44.161 29.504 29.505 44.162 64.997 44.162 106.666 0 41.835-14.835 77.505-44.327 106.997-29.505 29.505-65.174 44.174-106.832 44.174z" id="path94"/></glyph><glyph unicode="G" horiz-adv-x="839" id="glyph100"><path d="m745.832 600.669-96.165-95.168c-60.833 64.335-131.835 96.497-212.835 96.497-70.5 0-129.668-23.333-177.331-70.164-47.67-46.83-71.499-103.666-71.499-170.67 0-69.165 24.662-127.83 74.162-175.996 49.5-48.165 110.504-72.165 183-72.165 47.167 0 87 9.998 119.333 29.829 32.339 19.836 58.5 50.834 78.337 93.171H435v127.996H796l.998-30.165c0-62.835-16.33-122.333-48.833-178.666C715.5 99 673.336 56.002 621.669 26.333 569.836-3.165 508.998-18 439.336-18c-74.504 0-141 16.17-199.5 48.502-58.5 32.498-104.67 78.496-138.833 138.33-34.004 60.001-51 124.5-51 193.832 0 95.002 31.5 177.668 94.329 247.837C218.836 694.165 316 735.999 435.504 735.999c62.498 0 120.998-11.498 175.494-34.665 45.838-19.5 90.839-53.168 134.835-100.666z" id="path98"/></glyph><glyph unicode="%" horiz-adv-x="859" id="glyph104"><path d="M659.836 750.001h99l-568.838-799H91.5l487.164 686.163c-29.333-4.996-56.829-8.829-82.665-11.333-25.666-2.498-49.5-3.832-71.333-3.832-22.5 0-46.335 1.169-71.499 3.502 7.164-22.666 10.831-43.335 10.831-61.837 0-47.498-16.5-87.833-49.665-120.998C281.333 409.5 240.998 393 193.5 393c-47.835 0-88.666 16.666-122.168 49.831-33.502 33.172-50.333 73.335-50.333 120.502 0 30.502 7.5 58.831 22.5 85.164 14.835 26.167 36 47.339 63 63.337 27.165 16.163 54.165 24.165 80.835 24.165 20.167 0 47.829-3.833 83.333-11.664 62.663-13.5 117.998-20.338 165.833-20.338 43.163 0 83.332 3.838 120.668 11.504 37.163 7.665 71.332 19.163 102.668 34.5zM192.502 646.997c-22.837 0-42.171-7.996-58.335-24.165-16.17-16.164-24.165-35.499-24.165-57.999 0-23.002 7.996-42.502 24.165-58.665 16.164-16.17 35.498-24.165 58.335-24.165 22.83 0 42.165 7.996 58.329 24.165 16.17 16.163 24.171 35.663 24.171 58.665 0 22.831-8.002 42.166-24.171 58.164-16.163 16.004-35.498 24-58.329 24zm474.999-323.995c47.167 0 87.668-16.837 121.164-50.339 33.502-33.496 50.333-73.996 50.333-121.329 0-47.167-16.83-87.502-50.333-121.004-33.496-33.496-73.996-50.333-121.164-50.333-47.504 0-88.004 16.837-121.5 50.333-33.337 33.502-50.002 73.837-50.002 121.004 0 47.333 16.665 87.833 50.002 121.33 33.496 33.501 73.996 50.338 121.5 50.338zm.33-89.002c-23.167 0-42.667-8.167-58.665-24.337-16.17-16.163-24.165-35.498-24.165-58.163 0-22.666 7.996-42 24.165-58.17C625.164 77.167 644.664 69 667.832 69c22.665 0 42 8.167 58.004 24.33C741.999 109.5 750 128.834 750 151.5c0 22.665-8.002 42-24.165 58.163C709.832 225.833 690.497 234 667.832 234z" id="path102"/></glyph><glyph unicode="i" horiz-adv-x="200" id="glyph108"><path d="M99.835 749c15.496 0 28.669-5.496 39.669-16.67 11-11 16.496-24.495 16.496-40 0-15.33-5.496-28.66-16.496-39.66-11-11.166-24.173-16.67-39.67-16.67-15.33 0-28.33 5.504-39.33 16.67C49.504 663.67 44 677 44 692.33c0 15.505 5.504 29 16.504 40 11 11.174 24 16.67 39.33 16.67zM66 531h68V0H66v531z" id="path106"/></glyph></font>
</defs>
</svg>
