<?xml version="1.0" encoding="UTF-8" standalone="no"?>
<svg
   xml:space="preserve"
   width="1260"
   height="200"
   version="1.1"
   style="clip-rule:evenodd;fill-rule:evenodd;image-rendering:optimizeQuality;shape-rendering:geometricPrecision;text-rendering:geometricPrecision"
   viewBox="0 0 1260 200"
   id="svg639"
   sodipodi:docname="Weihnachtaktion2025_Ruestung_banner_french.svg"
   inkscape:version="1.4.2 (ebf0e940d0, 2025-05-08)"
   xmlns:inkscape="http://www.inkscape.org/namespaces/inkscape"
   xmlns:sodipodi="http://sodipodi.sourceforge.net/DTD/sodipodi-0.dtd"
   xmlns:xlink="http://www.w3.org/1999/xlink"
   xmlns="http://www.w3.org/2000/svg"
   xmlns:svg="http://www.w3.org/2000/svg"><sodipodi:namedview
   id="namedview1"
   pagecolor="#ffffff"
   bordercolor="#000000"
   borderopacity="0.25"
   inkscape:showpageshadow="2"
   inkscape:pageopacity="0.0"
   inkscape:pagecheckerboard="0"
   inkscape:deskcolor="#d1d1d1"
   inkscape:zoom="0.61428568"
   inkscape:cx="530.6977"
   inkscape:cy="305.23258"
   inkscape:window-width="1854"
   inkscape:window-height="1011"
   inkscape:window-x="0"
   inkscape:window-y="0"
   inkscape:window-maximized="1"
   inkscape:current-layer="text1"
   showgrid="false" />
 <defs
   id="defs157">
  <font
   id="FontID0"
   horiz-adv-x="739"
   font-variant="normal"
   style="fill-rule:nonzero"
   font-weight="400,700"
   horiz-origin-x="0"
   horiz-origin-y="0"
   vert-origin-x="512"
   vert-origin-y="768"
   vert-adv-y="1024">
	<font-face
   font-family="Century Gothic"
   id="font-face2">
	</font-face>
   <missing-glyph
   id="missing-glyph6"><path
     d="M0 0z"
     id="path4" /></missing-glyph>
   <glyph
   unicode="f"
   horiz-adv-x="314"
   id="glyph10"><path
     d="M296 735.331l0 -66.4961c-25.1654,10.8346 -46.8346,16.1654 -64.8346,16.1654 -13.4961,0 -24.6614,-2.66929 -33.4961,-8 -8.83465,-5.33071 -14.5039,-11.4961 -16.6693,-18.4961 -2.33071,-7 -3.49606,-25.6693 -3.49606,-55.8346l0 -71.6693 111.496 0 0 -59 -111.669 0 -0.330709 -472 -68 0 0 472 -70 0 0 59 70 0 0 82.6693c0,38 3.50394,65.1654 10.5039,81.3307 7,16.1654 19,29.3307 35.8268,39.1654 16.6693,9.83465 37,14.8346 60.8346,14.8346 22.1654,0 48.8346,-4.49606 79.8346,-13.6693z"
     id="path8" /></glyph>
   <glyph
   unicode="0"
   horiz-adv-x="554"
   id="glyph14"><path
     d="M31.9963 358.834c0,94.6661 10.1694,167.836 30.5081,219.498 20.3269,51.839 48.9925,91.0047 86.1621,117.674 37.0042,26.6577 78.4967,39.9924 124.501,39.9924 46.5004,0 88.6661,-13.5001 126.332,-40.335 37.6657,-26.8349 67.6659,-66.9927 89.5046,-120.662 21.9923,-53.6697 33.0003,-125.836 33.0003,-216.167 0,-90.1661 -10.8426,-162.001 -32.5042,-215.328 -21.6616,-53.339 -51.4965,-93.5086 -89.5046,-120.674 -37.9964,-27.1656 -80.3274,-40.831 -126.828,-40.831 -46.0043,0 -87.3314,13.1694 -124.005,39.4964 -36.8271,26.3388 -65.4926,65.6698 -86.1621,117.84 -20.6695,52.3351 -31.0042,125.328 -31.0042,219.498zm68.0084 -1.33466c0,-81.0006 7.15754,-142.336 21.6616,-183.828 14.5041,-41.5043 36.0003,-73.0045 64.3352,-94.5007 28.3349,-21.508 58.1697,-32.1735 89.8354,-32.1735 31.831,0 61.6658,10.5001 89.3275,31.5002 27.6734,21.0002 48.6736,52.5004 63.0005,94.5007 17.8348,51.0004 26.8349,112.501 26.8349,184.501 0,72.3313 -7.99613,131.34 -24.0002,177.497 -15.8269,46.0043 -37.9964,79.666 -66.1659,101.009 -28.0042,21.3309 -57.839,31.9963 -88.9968,31.9963 -32.0081,0 -61.8312,-10.6654 -89.8354,-31.9963 -28.0042,-21.3427 -49.335,-52.6658 -64.0044,-94.17 -14.6694,-41.5043 -21.9923,-103.005 -21.9923,-184.336z"
     id="path12" /></glyph>
   <glyph
   unicode="t"
   horiz-adv-x="299"
   id="glyph18"><path
     d="M83.0021 726.999l132.998 0 0 -195.998 78.9982 0 0 -114.998 -78.9982 0 0 -416.003 -132.998 0 0 416.003 -68.0021 0 0 114.998 68.0021 0 0 195.998z"
     id="path16" /></glyph>
   <glyph
   unicode="c"
   horiz-adv-x="640"
   id="glyph22"><path
     d="M586.997 423.001l-110.829 -60.9982c-20.8347,21.8327 -41.3328,36.8327 -61.6655,45.3308 -20.3386,8.49805 -44.1674,12.6673 -71.5041,12.6673 -49.8308,0 -90.1655,-14.8347 -120.833,-44.3328 -30.8327,-29.6693 -46.1635,-67.5001 -46.1635,-113.835 0,-45.0001 14.8288,-81.6675 44.3328,-110.168 29.6634,-28.5001 68.4982,-42.6674 116.664,-42.6674 59.5041,0 105.833,20.3327 139.17,61.0041l104.829 -72.0001c-57.0001,-74.0021 -137.333,-111 -241.164,-111 -93.5022,0 -166.666,27.6674 -219.502,82.8309 -52.8308,55.1694 -79.3289,119.67 -79.3289,193.666 0,51.3367 12.8327,98.5041 38.4981,141.668 25.8308,43.1694 61.6655,77.1675 107.835,101.835 45.9981,24.6674 97.5002,36.9981 154.5,36.9981 52.8308,0 100.164,-10.5 142.164,-31.5001 42.0001,-21 76.3348,-50.8347 102.998,-89.4982z"
     id="path20" /></glyph>
   <glyph
   unicode="n"
   horiz-adv-x="609"
   id="glyph26"><path
     d="M76 531l68 0 0 -95.1654c27.5039,36.3307 57.8346,63.4961 91,81.3307 33.3307,17.8346 69.5039,26.8346 108.669,26.8346 39.8346,0 75.1654,-10 106,-30.1654 30.8346,-20.1654 53.6614,-47.3307 68.3307,-81.5039 14.6693,-34 22,-87.1654 22,-159.331l0 -273 -68 0 0 253c0,61 -2.66929,101.835 -7.83465,122.331 -8.33071,35 -23.6614,61.3386 -46.1654,79.1732 -22.4961,17.6614 -51.8346,26.4961 -88,26.4961 -41.4961,0 -78.6693,-13.6693 -111.331,-41 -32.8346,-27.1654 -54.5039,-61 -64.8346,-101.331 -6.50394,-26.3386 -9.83465,-74.3386 -9.83465,-144.165l0 -194.504 -68 0 0 531z"
     id="path24" /></glyph>
   <glyph
   unicode="k"
   horiz-adv-x="579"
   id="glyph30"><path
     d="M68.0021 735.999l132.998 0 0 -423.834 196.666 218.835 166.335 0 -227.67 -253.5 256.17 -277.501 -165.502 0 -225.998 244.831 0 -244.831 -132.998 0 0 735.999z"
     id="path28" /></glyph>
   <glyph
   unicode="5"
   horiz-adv-x="559"
   id="glyph34"><path
     d="M166.666 717.999l336.337 0 0 -126 -234.172 0 -29.1674 -131.835c8.00198,2.33859 16.004,4.00394 23.8347,5.16733 7.83663,1.16929 15.3366,1.67126 22.5,1.67126 65.0021,0 119.168,-22.1693 162.337,-66.5021 43.1635,-44.3328 64.6655,-101.002 64.6655,-170.168 0,-69.8328 -23.8347,-128.664 -71.4982,-176.498 -47.8347,-47.8347 -105.839,-71.8348 -174.172,-71.8348 -61.3289,0 -113.829,17.4981 -157.831,52.5001 -44.0021,34.8308 -72.8328,82.6655 -86.4982,143.498l144 0c10.9961,-22.3288 25.5001,-39.3308 43.6654,-50.8288 18,-11.504 37.8308,-17.1674 59.6635,-17.1674 30.1713,0 55.8367,10.8307 77.0021,32.4981 21.1654,21.6674 31.6654,49.5001 31.6654,83.4982 0,33.0001 -9.8327,60.0001 -29.4981,81.1655 -19.6654,21.1713 -43.5001,31.8367 -71.4982,31.8367 -15,0 -29.6693,-3.66733 -44.1674,-11.1673 -14.504,-7.33466 -28.6713,-18.502 -42.6674,-33.502l-111.337 25.004 86.8348 398.664z"
     id="path32" /></glyph>
   <glyph
   unicode="2"
   horiz-adv-x="554"
   id="glyph38"><path
     d="M115.997 492.996l-69.0005 0c2.00789,71.0084 25.5002,129.166 70.8313,174.675 45.3429,45.4964 101.339,68.3273 168.001,68.3273 65.8352,0 119.174,-21.3309 160.005,-63.9926 40.831,-42.6736 61.1698,-93.0007 61.1698,-151.005 0,-40.831 -9.83866,-79.0046 -29.3388,-114.662 -19.5002,-35.6696 -57.3312,-84.0007 -113.493,-144.84l-179.175 -193.502 331.999 0 0 -67.9966 -486.996 0 273.664 295.502c55.5004,59.8351 91.5007,103.997 108.332,132.993 16.6655,28.8427 25.0041,59.1737 25.0041,91.17 0,40.5003 -15.0001,75.3313 -45.0004,104.505 -30.0002,29.1616 -66.6619,43.8311 -110.162,43.8311 -45.6736,0 -83.67,-15.3308 -114.001,-46.0043 -30.3309,-30.6617 -47.6697,-73.6659 -51.839,-129.001z"
     id="path36" /></glyph>
   <glyph
   unicode="v"
   horiz-adv-x="554"
   id="glyph42"><path
     d="M25.9963 531.004l71.5045 0 178.832 -387.676 177.497 387.676 73.1699 0 -243.002 -531.004 -13.004 0 -244.998 531.004z"
     id="path40" /></glyph>
   <glyph
   unicode="e"
   horiz-adv-x="640"
   id="glyph46"><path
     d="M598.501 228l-427.501 0c6.16537,-37.8367 22.6654,-68.0021 49.3347,-90.5021 26.6634,-22.3288 60.8328,-33.4961 102.166,-33.4961 49.6655,0 92.1675,17.4981 127.831,52.5001l111.668 -52.8367c-27.8327,-39.6674 -61.3348,-69.0001 -100.164,-88.1636 -39.0001,-19.004 -85.1695,-28.5001 -138.668,-28.5001 -83.0021,0 -150.668,26.1674 -202.837,78.6675 -52.1635,52.3288 -78.3309,117.998 -78.3309,196.831 0,80.8348 26.1674,147.998 78.3309,201.331 52.1694,53.504 117.502,80.1675 196.335,80.1675 83.4982,0 151.5,-26.6634 203.835,-79.8309 52.3347,-53.3328 78.4962,-123.502 78.4962,-211.004l-0.496064 -25.1634zm-132.502 104.002c-8.83466,28.9961 -26.1674,52.6655 -51.9981,70.8308 -26.002,18.1654 -56.0021,27.1654 -90.3368,27.1654 -37.1635,0 -69.6616,-10.1634 -97.8309,-30.6674 -17.4981,-12.6673 -33.8327,-35.1674 -48.8328,-67.3289l288.999 0z"
     id="path44" /></glyph>
   <glyph
   unicode="b"
   horiz-adv-x="682"
   id="glyph50"><path
     d="M81.0006 0l0 735.998 67.9966 0 0 -297.002c28.6656,35.1735 60.6737,61.5005 96.1661,78.8392 35.5042,17.5041 74.3392,26.1616 116.505,26.1616 75.1659,0 139.336,-27.1656 192.498,-81.4967 53.1618,-54.4965 79.8313,-120.332 79.8313,-198.002 0,-76.5006 -26.8349,-141.993 -80.4928,-196.159 -53.6697,-54.1776 -118.17,-81.3432 -193.667,-81.3432 -43.335,0 -82.5006,9.16543 -117.674,27.5081 -35.1617,18.3309 -66.1659,45.9925 -93.1661,83.1621l0 -97.6661 -67.9966 0zm273.829 52.9965c37.8428,0 73.0045,9.34259 105.001,27.8388 32.1735,18.6616 57.6737,44.835 76.666,78.4967 19.0041,33.4963 28.5002,69.1659 28.5002,106.666 0,37.5003 -9.49614,73.3352 -28.6656,107.339 -19.1694,33.827 -44.835,60.3312 -77.162,79.3235 -32.3388,18.8387 -66.8391,28.3349 -103.501,28.3349 -37.1696,0 -72.6738,-9.49614 -106.335,-28.3349 -33.4963,-18.9923 -59.3272,-44.4925 -77.3274,-76.4888 -18.0001,-32.0081 -27.0002,-68.0084 -27.0002,-108.178 0,-61.158 20.1616,-112.324 60.6619,-153.332 40.335,-41.1617 90.0007,-61.6658 149.163,-61.6658z"
     id="path48" /></glyph>
   <glyph
   unicode="s"
   horiz-adv-x="440"
   id="glyph54"><path
     d="M392.003 455.836l-82.3348 -82.8368c-33.3367,33.3367 -63.6674,50.0021 -91.0041,50.0021 -14.8288,0 -26.4981,-3.16536 -34.9961,-9.50199 -8.50395,-6.33072 -12.6673,-14.1674 -12.6673,-23.4981 0,-7.16931 2.66339,-13.6654 8.00198,-19.6654 5.33269,-6.00001 18.6615,-14.1674 39.8328,-24.6674l48.6674 -24.3367c51.3308,-25.1634 86.6636,-51.0001 105.833,-77.1675 19.1634,-26.3327 28.6654,-57.0001 28.6654,-92.3329 0,-46.9962 -17.3327,-86.3328 -51.9981,-117.662 -34.6713,-31.5001 -81.1714,-47.1674 -139.5,-47.1674 -77.3328,0 -139.335,30.1654 -185.504,90.6675l82.1695 89.3329c15.6674,-18.1713 33.9981,-33.0001 55.1635,-44.1674 21,-11.1673 39.6674,-16.8366 56.0021,-16.8366 17.4981,0 31.8308,4.1693 42.5021,12.6673 10.8307,8.50395 16.1634,18.1654 16.1634,29.1674 0,20.4981 -19.3347,40.5001 -58.1635,59.8348l-44.8347 22.5c-86.0021,43.1635 -129,97.1636 -129,162 0,41.8347 16.1693,77.6635 48.5021,107.333 32.3327,29.6634 73.6655,44.4981 123.998,44.4981 34.5001,0 66.8328,-7.66537 97.3348,-22.8308 30.3308,-15.1654 55.9962,-37.004 77.1675,-65.3328z"
     id="path52" /></glyph>
   <glyph
   unicode="m"
   horiz-adv-x="939"
   id="glyph58"><path
     d="M66.0001 531.001l132.998 0 0 -62.0021c22.8367,25.1693 48.1654,44.0021 76.1694,56.3328 27.8327,12.502 58.3348,18.6674 91.3348,18.6674 33.1654,0 63.3308,-8.16734 90.0002,-24.502 26.8288,-16.3288 48.3308,-40.3288 64.6655,-71.6635 21.1654,31.3347 47.1674,55.3348 78.0002,71.6635 30.8327,16.3347 64.6655,24.502 101.168,24.502 37.8308,0 71.1616,-8.83466 99.8329,-26.3327 28.8308,-17.4981 49.3288,-40.5001 61.9962,-68.6635 12.502,-28.3347 18.8327,-74.3387 18.8327,-138l0 -311.003 -132.998 0 0 268.335c0,60.0001 -7.50001,100.666 -22.6654,121.831 -15.1654,21.1654 -38.002,31.8367 -68.1675,31.8367 -23.1674,0 -43.8308,-6.50198 -62.0021,-19.5 -18.3307,-12.8386 -31.9961,-30.8386 -40.8308,-53.6694 -8.83466,-22.8308 -13.3347,-59.4981 -13.3347,-110.168l0 -238.666 -132.998 0 0 256.164c0,47.3387 -3.50198,81.6675 -10.6654,102.839 -7.00395,21.3308 -17.6693,36.9981 -31.6713,47.4981 -14.1614,10.3347 -31.3288,15.502 -51.3308,15.502 -22.3347,0 -42.6674,-6.50198 -60.8328,-19.6713 -18.3367,-13.1634 -31.8367,-31.5001 -41.002,-55.1635 -9.00002,-23.6693 -13.5,-61.0041 -13.5,-111.833l0 -235.335 -132.998 0 0 531.001z"
     id="path56" /></glyph>
   <glyph
   unicode="H"
   horiz-adv-x="680"
   id="glyph62"><path
     d="M81.0002 717.999l138.998 0 0 -270.999 240 0 0 270.999 138 0 0 -717.999 -138 0 0 315.001 -240 0 0 -315.001 -138.998 0 0 717.999z"
     id="path60" /></glyph>
   <glyph
   unicode="u"
   horiz-adv-x="600"
   id="glyph66"><path
     d="M66.9982 531.001l135 0 0 -255.337c0,-49.6655 3.50198,-84.1655 10.3347,-103.5 6.83269,-19.3288 17.8347,-34.3288 33.0001,-45.1654 15.1654,-10.6654 33.9981,-15.9981 56.1674,-15.9981 22.1634,0 41.1674,5.33269 56.6635,15.8327 15.502,10.5 27.0001,26.002 34.5001,46.5001 5.50395,15.3307 8.3386,48.0001 8.3386,98.0022l0 259.666 132.998 0 0 -224.67c0,-92.6636 -7.33466,-156 -22.004,-190.164 -17.8288,-41.6694 -44.3328,-73.5001 -79.1635,-95.8348 -34.8308,-22.1634 -79.1694,-33.3308 -132.833,-33.3308 -58.3348,0 -105.337,12.9981 -141.331,39.0001 -36.0001,25.9961 -61.3348,62.1674 -76.0041,108.668 -10.5,32.1615 -15.6674,90.6616 -15.6674,175.494l0 220.837z"
     id="path64" /></glyph>
   <glyph
   unicode="d"
   horiz-adv-x="660"
   id="glyph70"><path
     d="M459.999 735.999l132.998 0 0 -735.999 -132.998 0 0 56.4981c-25.9961,-24.6674 -52.1635,-42.3308 -78.3309,-53.1674 -26.1674,-10.8307 -54.6674,-16.3288 -85.1695,-16.3288 -68.8348,0 -128.168,26.4981 -178.329,79.6655 -50.1674,53.0021 -75.1714,118.996 -75.1714,197.835 0,81.8328 24.3367,148.831 72.8328,201.166 48.5021,52.1635 107.333,78.3309 176.67,78.3309 32.002,0 61.8308,-6.00001 89.8348,-17.8347 27.9981,-12 53.8288,-30.0001 77.6635,-53.8288l0 263.664zm-140.168 -313.997c-41.3328,0 -75.6675,-14.504 -102.833,-43.6713 -27.3308,-28.9961 -40.9961,-66.3308 -40.9961,-111.833 0,-45.8328 13.8307,-83.4982 41.6635,-113.168 27.8327,-29.4981 62.0021,-44.3328 102.668,-44.3328 41.8347,0 76.6655,14.504 104.168,43.6713 27.6674,28.9961 41.4981,67.1635 41.4981,114.331 0,46.1635 -13.8307,83.4982 -41.4981,112.164 -27.502,28.5001 -62.4982,42.8387 -104.669,42.8387z"
     id="path68" /></glyph>
   <glyph
   unicode="1"
   horiz-adv-x="559"
   id="glyph74"><path
     d="M164.168 717.999l204.833 0 0 -717.999 -135.998 0 0 589.997 -148.004 0 79.1694 128.002z"
     id="path72" /></glyph>
   <glyph
   unicode=" "
   horiz-adv-x="276"
   id="glyph76" />
   <glyph
   unicode="r"
   horiz-adv-x="300"
   id="glyph80"><path
     d="M49.9965 531.004l70.0045 0 0 -77.6699c20.8348,30.6617 42.8271,53.3272 66.0005,68.3273 23.1616,14.8348 47.3271,22.3348 72.3313,22.3348 19.0041,0 39.1657,-6.00005 60.6619,-18.0001l-35.6578 -57.3312c-14.3387,6.1654 -26.3388,9.33078 -36.1656,9.33078 -22.8427,0 -44.835,-9.33078 -66.0005,-27.9923 -21.1655,-18.6734 -37.3349,-47.835 -48.5083,-87.166 -8.49219,-30.1656 -12.6615,-91.3354 -12.6615,-183.332l0 -179.505 -70.0045 0 0 531.004z"
     id="path78" /></glyph>
   <glyph
   unicode="a"
   horiz-adv-x="683"
   id="glyph84"><path
     d="M605 531l0 -531 -68 0 0 91.3307c-28.6693,-34.8268 -60.6693,-61 -96.3307,-78.3307 -35.5039,-17.3307 -74.5039,-26 -116.669,-26 -75,0 -139.165,27.1654 -192.331,81.5039 -53.1654,54.4961 -79.6693,120.496 -79.6693,198.496 0,76.1654 26.8346,141.504 80.5039,195.669 53.4961,54.1654 118,81.3307 193.496,81.3307 43.5039,0 82.8346,-9.16535 118.165,-27.4961 35.1654,-18.3386 66.1654,-46 92.8346,-83.1732l0 97.6693 68 0zm-273.669 -53c-38,0 -73.1654,-9.33071 -105.165,-28 -32.1654,-18.4961 -57.6614,-44.6693 -76.6614,-78.3307 -19,-33.6693 -28.5039,-69.3386 -28.5039,-107 0,-37.1654 9.50394,-72.8346 28.6693,-106.835 19.1654,-34 44.8346,-60.5039 77.1654,-79.3307 32.3307,-19 67,-28.5039 104,-28.5039 37.1654,0 72.6693,9.33071 106,28.1654 33.4961,18.8346 59.1654,44.1654 77.1654,76.3386 18,32 27,68.1654 27,108.331 0,61.1654 -20.1654,112.331 -60.6693,153.496 -40.3307,41.1732 -90,61.6693 -149,61.6693z"
     id="path82" /></glyph>
   <glyph
   unicode="o"
   horiz-adv-x="654"
   id="glyph88"><path
     d="M327.835 544c81.8346,0 149.835,-29.4961 203.669,-88.6693 49,-53.8268 73.4961,-117.661 73.4961,-191.331 0,-74 -25.8346,-138.669 -77.6693,-194 -51.6614,-55.3307 -118.331,-83 -199.496,-83 -81.6693,0 -148.504,27.6693 -200.165,83 -51.8346,55.3307 -77.6693,120 -77.6693,194 0,73.3307 24.5039,137 73.5039,190.835 53.8268,59.4961 122,89.1654 204.331,89.1654zm-0.330709 -67c-56.8346,0 -105.504,-20.8346 -146.339,-62.6693 -40.8346,-41.8268 -61.1654,-92.4961 -61.1654,-151.827 0,-38.1732 9.33071,-73.8346 27.8346,-107 18.6693,-33 43.8346,-58.5039 75.4961,-76.5039 31.5039,-18 66.3386,-27 104.173,-27 37.8268,0 72.6614,9 104.165,27 31.6614,18 56.8346,43.5039 75.4961,76.5039 18.5039,33.1654 27.8346,68.8268 27.8346,107 0,59.3307 -20.4961,110 -61.4961,151.827 -40.8346,41.8346 -89.5039,62.6693 -146,62.6693z"
     id="path86" /></glyph>
   <glyph
   unicode="l"
   horiz-adv-x="200"
   id="glyph92"><path
     d="M66 736l68 0 0 -736 -68 0 0 736z"
     id="path90" /></glyph>
   <glyph
   unicode="6"
   horiz-adv-x="554"
   id="glyph96"><path
     d="M366.995 735.998l59.1737 -38.3271 -194.671 -293.506c25.9963,8.504 50.5043,12.8387 73.3352,12.8387 57.1658,0 105.662,-20.6695 145.501,-61.8312 39.8271,-41.1736 59.6698,-91.8432 59.6698,-152.009 0,-41.3271 -9.6733,-78.662 -28.8427,-111.993 -19.323,-33.331 -46.5004,-60.0005 -81.8274,-79.666 -35.5042,-19.6655 -73.5006,-29.5042 -114.332,-29.5042 -39.331,0 -76.0045,9.49614 -109.666,28.5002 -33.8388,19.1694 -60.1658,45.8389 -79.5006,80.3274 -19.1694,34.5003 -28.8309,71.5045 -28.8309,110.836 0,29.3388 6.00005,60.1658 17.823,92.5047 12.0001,32.5042 33.1774,71.3273 63.8391,117.001l218.328 324.829zm-79.1581 -381.995c-41.835,0 -77.3392,-14.6694 -106.666,-44.1736 -29.5042,-29.4924 -44.1736,-65.1619 -44.1736,-106.997 0,-41.6696 14.6694,-77.162 44.1736,-106.666 29.4924,-29.5042 65.1619,-44.1618 106.832,-44.1618 41.6696,0 77.3274,14.6576 106.832,44.1618 29.5042,29.5042 44.1618,64.9966 44.1618,106.666 0,41.835 -14.8348,77.5045 -44.3271,106.997 -29.5042,29.5042 -65.1737,44.1736 -106.832,44.1736z"
     id="path94" /></glyph>
   <glyph
   unicode="G"
   horiz-adv-x="839"
   id="glyph100"><path
     d="M745.832 600.669l-96.1655 -95.1675c-60.8328,64.3348 -131.835,96.4963 -212.835,96.4963 -70.5001,0 -129.668,-23.3327 -177.331,-70.1635 -47.6694,-46.8308 -71.4982,-103.666 -71.4982,-170.67 0,-69.1655 24.6615,-127.831 74.1616,-175.996 49.5001,-48.1654 110.504,-72.1655 183,-72.1655 47.1674,0 87.0002,9.99805 119.333,29.8288 32.3386,19.8367 58.5001,50.8347 78.3368,93.1714l-207.833 0 0 127.996 360.999 0 0.998033 -30.1654c0,-62.8348 -16.3288,-122.333 -48.8328,-178.666 -32.6635,-56.1674 -74.8289,-99.1655 -126.496,-128.835 -51.8328,-29.4981 -112.671,-44.3328 -182.333,-44.3328 -74.5041,0 -141,16.1693 -199.5,48.5021 -58.5001,32.4981 -104.669,78.4962 -138.833,138.331 -34.004,60.0001 -51.0001,124.5 -51.0001,193.831 0,95.0022 31.5001,177.668 94.3289,247.837 74.5041,83.6636 171.668,125.498 291.172,125.498 62.4982,0 120.998,-11.4981 175.494,-34.6654 45.8387,-19.5 90.8388,-53.1674 134.835,-100.666z"
     id="path98" /></glyph>
   <glyph
   unicode="%"
   horiz-adv-x="859"
   id="glyph104"><path
     d="M659.836 750.001l99.0002 0 -568.838 -799 -98.4982 0 487.164 686.163c-29.3327,-4.99607 -56.8289,-8.82876 -82.6655,-11.3327 -25.6654,-2.49804 -49.5001,-3.83268 -71.3328,-3.83268 -22.5,0 -46.3347,1.16929 -71.4982,3.50198 7.1634,-22.6654 10.8307,-43.3347 10.8307,-61.8367 0,-47.4981 -16.5,-87.8329 -49.6655,-120.998 -33.0001,-33.1654 -73.3348,-49.6655 -120.833,-49.6655 -47.8347,0 -88.6655,16.6654 -122.168,49.8308 -33.502,33.1713 -50.3328,73.3348 -50.3328,120.502 0,30.502 7.50001,58.8308 22.5,85.1636 14.8347,26.1674 36.0001,47.3387 63.0001,63.3367 27.1654,16.1634 54.1655,24.1654 80.8348,24.1654 20.1674,0 47.8288,-3.83268 83.3328,-11.6634 62.6635,-13.5 117.998,-20.3386 165.833,-20.3386 43.1635,0 83.3328,3.83859 120.668,11.504 37.1635,7.66537 71.3328,19.1634 102.668,34.5001zm-467.334 -103.004c-22.8367,0 -42.1713,-7.99608 -58.3348,-24.1654 -16.1693,-16.1634 -24.1654,-35.4981 -24.1654,-57.9981 0,-23.002 7.99608,-42.5021 24.1654,-58.6655 16.1634,-16.1693 35.4981,-24.1654 58.3348,-24.1654 22.8308,0 42.1654,7.99608 58.3289,24.1654 16.1693,16.1634 24.1713,35.6635 24.1713,58.6655 0,22.8308 -8.00198,42.1654 -24.1713,58.1635 -16.1634,16.004 -35.4981,24 -58.3289,24zm474.999 -323.995c47.1674,0 87.6675,-16.8366 121.164,-50.3387 33.502,-33.4961 50.3328,-73.9962 50.3328,-121.329 0,-47.1674 -16.8307,-87.5021 -50.3328,-121.004 -33.4961,-33.4961 -73.9962,-50.3328 -121.164,-50.3328 -47.504,0 -88.0041,16.8366 -121.5,50.3328 -33.3367,33.502 -50.0021,73.8368 -50.0021,121.004 0,47.3328 16.6654,87.8329 50.0021,121.329 33.4961,33.502 73.9962,50.3387 121.5,50.3387zm0.330709 -89.0021c-23.1674,0 -42.6674,-8.16734 -58.6655,-24.3367 -16.1693,-16.1634 -24.1654,-35.4981 -24.1654,-58.1635 0,-22.6654 7.99608,-42.0001 24.1654,-58.1694 15.9981,-16.1634 35.4981,-24.3308 58.6655,-24.3308 22.6654,0 42.0001,8.16734 58.0041,24.3308 16.1634,16.1693 24.1654,35.504 24.1654,58.1694 0,22.6654 -8.00198,42.0001 -24.1654,58.1635 -16.004,16.1693 -35.3387,24.3367 -58.0041,24.3367z"
     id="path102" /></glyph>
   <glyph
   unicode="i"
   horiz-adv-x="200"
   id="glyph108"><path
     d="M99.8346 749c15.4961,0 28.6693,-5.49606 39.6693,-16.6693 11,-11 16.4961,-24.4961 16.4961,-40 0,-15.3307 -5.49606,-28.6614 -16.4961,-39.6614 -11,-11.1654 -24.1732,-16.6693 -39.6693,-16.6693 -15.3307,0 -28.3307,5.50394 -39.3307,16.6693 -11,11 -16.5039,24.3307 -16.5039,39.6614 0,15.5039 5.50394,29 16.5039,40 11,11.1732 24,16.6693 39.3307,16.6693zm-33.8346 -218l68 0 0 -531 -68 0 0 531z"
     id="path106" /></glyph>
  </font>
</defs>
</svg>
